Welcome Guest ( Log In | Register )

> И неформату есть предел.

Рэп/хип-хоп/шансон/поп удаляются. Для них есть свои порталы.

 
Reply to this topicStart new topic
> King Automatic - In The Blue Corner (2009), Garage Rock
post Mar 14 2020, 10:37:01
Post #1

:3
**************
Group: Металариец
Posts: 4,578
Releases: 103
From: Novosibirsk
On Forums: 12 years 6 months
Thanks: 3714 time(s)
Russian Federation


(IMG:http://metalarea.org/images/audiocovers/2020_Mar/acov_tid334944_thumb.jpg)

*Artist: King Automatic
*Album: In The Blue Corner
*Year: 2009
*Genre: Garage Rock
*Country: France (IMG:http://metalarea.org/forum/style_images/flags/France.png)
*Format: mp3@CBR320kbps
*Size: 90MB

Tracklist:
1. King Takes Queen 2:47
2. In The Blue Corner 2:43
3. Staircase Serenade 2:54
4. Le Redresseur de Torts 2:20
5. Moodswings 2:36
6. Fake Skinheads In Love 2:08
7. Things Are What They Are But Never What They Seem 2:30
8. Let's Have A Party 2:21
9. Vague Information 2:44
10. There Is No Truth In The Night 2:37
11. There Goes George 3:08
12. Doctor Jekyll And Sister Hyde 3:08
13. Mighty Sword Of Truth 3:33
14. Black Magic 2:58
******************************
Total playing time: 38:27

Extended info



Technical info
(IMG:http://metalarea.org/images/spectrogram/2020_Mar/c06a4595a6a0b8f493c798821adc07ae.png)
Input File: 09 - Vague Information.mp3
Channels : 2
Sample Rate : 44100
Precision : 16-bit
Duration : 00:02:43.83 = 7224727 samples = 12287 CDDA sectors
File Size : 6.66M
Bit Rate : 325k
Sample Encoding: MPEG audio (layer I, II or III)
Comments :
Title=Vague Information
Artist=King Automatic
Album=In The Blue Corner
Tracknumber=09
Year=2009
Genre=Garage Punk



Register


Thanks:
Go to the top of the page
  Insert nick Quick quote
+Quote Post

Reply to this topicStart new topic
1 User(s) are reading this topic (1 Guests and 0 Anonymous Users)
0 Members:

 



- Lo-Fi Version Support form
Copyrights and abuse reports form
Time is now: 1st April 2020 - 05:03:37