Welcome Guest ( Log In | Register )

> И неформату есть предел.

Рэп/хип-хоп/шансон/поп удаляются. Для них есть свои порталы.

 
Reply to this topicStart new topic
> Various Artists - Sonic Seducer: Cold Hands Seduction 216 [compilation] (2020), Various Gothic (D2164)
post Mar 14 2020, 15:39:12
Post #1

Мегаманьяк
***********
Group: Металариец
Posts: 1,712
Releases: 462
On Forums: 11 years 11 months
Thanks: 6545 time(s)
Ireland


(IMG:https://metalarea.org/images/audiocovers/2020_Mar/acov_tid334949_thumb.jpg)

*Artist: Various Artists
*Album: Sonic Seducer: Cold Hands Seduction 216 [compilation]
*Year: 2020
*Genre: Various Gothic
*Country: Many (IMG:https://metalarea.org/forum/style_images/flags/Many.png)
*Format: mp3@CBR320kbps
*Size: 171MB

Tracklist:
1. Nightwish - Noise
2. Fakeba & John Fryer - Mother Africa
3. Not My God - Fiction
4. Salt - We Never Sleep
5. Croona - Dare To Die (Single Version)
6. Third Realm feat. Chiasm - Tides Of The Sea
7. Chrome Corpse - Detecting Movement (Bewegungserfassung)
8. Galahad - Our Sweet Lady
9. XIV Dark Centuries - Ich Bin Das Feuer
10. Devil-M - Faszination
11. Shuulak - Altar Of Gods
12. Aeons Confer - Impactors
13. Sandkamper - Himmel Und Zur Hölle
14. Poisoned Hestia - The Garden
15. Nerves - Weltende
16. Zeit - Hexe (Hydroxie Remix)
******************************
Total playing time: 1:16:26

Technical info
(IMG:https://metalarea.org/images/spectrogram/2020_Mar/4c70c9ba9277564fb3d42f4d966e168d.png)
Input File: 13 Himmel und zur Hölle.mp3
Channels : 2
Sample Rate : 44100
Precision : 16-bit
Duration : 00:06:03.31 = 16021751 samples = 27247.9 CDDA sectors
File Size : 14.7M
Bit Rate : 323k
Sample Encoding: MPEG audio (layer I, II or III)
Comments :
Title=Himmel und zur Hölle
Artist=Sandkamper
Album=Cold Hands Seduction Vol. 216
Tracknumber=13/16
Year=2020
Genre=19



Register


Go to the top of the page
  Insert nick Quick quote
+Quote Post

Reply to this topicStart new topic
1 User(s) are reading this topic (1 Guests and 0 Anonymous Users)
0 Members:

 



- Lo-Fi Version Support form
Copyrights and abuse reports form
Time is now: 29th March 2020 - 04:38:18