Welcome Guest ( Log In | Register )

> И неформату есть предел.

Рэп/хип-хоп/шансон/поп удаляются. Для них есть свои порталы.

 
Reply to this topicStart new topic
> Aphotic Apathy - The Engineers (2015), Space/Dark Ambient
post Mar 14 2020, 21:44:24
Post #1

Два Литра
**
Group: Завсегдатай
Posts: 192
Releases: 48
On Forums: 3 years 7 months
Thanks: 1101 time(s)
United States


(IMG:https://metalarea.org/images/audiocovers/2020_Mar/acov_tid334954_thumb.png)

*Artist: Aphotic Apathy
*Album: The Engineers
*Year: 2015
*Genre: Space/Dark Ambient
*Country: Unknown (IMG:https://metalarea.org/forum/style_images/flags/Unknown.png)
*Format: mp3@VBR248kbps
*Size: 95MB

Tracklist:
1. LV-223
2. Discovery
3. Dream
4. Designed
5. Temple
6. Ampules
7. Swarm
8. Engineers
9. Pathogen
10. Life
11. Paradise
******************************
Total playing time: 55:05



Technical info
(IMG:https://metalarea.org/images/spectrogram/2020_Mar/36a64fb0692f364518e1d9569a14a191.png)
Input File: 08 Engineers.mp3
Channels : 2
Sample Rate : 44100
Precision : 16-bit
Duration : 00:02:13.15 = 5871739 samples = 9985.95 CDDA sectors
File Size : 4.21M
Bit Rate : 253k
Sample Encoding: MPEG audio (layer I, II or III)
Comments :
Title=Engineers
Artist=Aphotic Apathy
Album=The Engineers
Tracknumber=8
Year=2015



Register


Go to the top of the page
  Insert nick Quick quote
+Quote Post

Reply to this topicStart new topic
1 User(s) are reading this topic (1 Guests and 0 Anonymous Users)
0 Members:

 



- Lo-Fi Version Support form
Copyrights and abuse reports form
Time is now: 29th March 2020 - 03:29:27