Welcome Guest ( Log In | Register )

> И неформату есть предел.

Рэп/хип-хоп/шансон/поп удаляются. Для них есть свои порталы.

 
Reply to this topicStart new topic
> Aphotic Apathy - The Nostromo (2015), Space/Dark Ambient
post Mar 14 2020, 21:49:51
Post #1

Два Литра
**
Group: Завсегдатай
Posts: 192
Releases: 48
On Forums: 3 years 7 months
Thanks: 1101 time(s)
United States


(IMG:https://metalarea.org/images/audiocovers/2020_Mar/acov_tid334956_thumb.png)

*Artist: Aphotic Apathy
*Album: The Nostromo
*Year: 2015
*Genre: Space/Dark Ambient
*Country: Unknown (IMG:https://metalarea.org/forum/style_images/flags/Unknown.png)
*Format: mp3@VBR274kbps
*Size: 83MB

Tracklist:
1. Awaken
2. Mother
3. Signal
4. LV-426
5. Derelict
6. Exploration
7. Space Jockey
8. Cargo
9. Eggs
10. Host
11. Nostromo
12. Narcissus
******************************
Total playing time: 51:44



Technical info
(IMG:https://metalarea.org/images/spectrogram/2020_Mar/c757be9dc6b86645c4c15b930758a4a8.png)
Input File: 02 Mother.mp3
Channels : 2
Sample Rate : 44100
Precision : 16-bit
Duration : 00:02:29.08 = 6574428 samples = 11181 CDDA sectors
File Size : 5.18M
Bit Rate : 278k
Sample Encoding: MPEG audio (layer I, II or III)
Comments :
Title=Mother
Artist=Aphotic Apathy
Album=The Nostromo
Tracknumber=2
Year=2015
Genre=Ambient



Register


Go to the top of the page
  Insert nick Quick quote
+Quote Post

Reply to this topicStart new topic
1 User(s) are reading this topic (1 Guests and 0 Anonymous Users)
0 Members:

 



- Lo-Fi Version Support form
Copyrights and abuse reports form
Time is now: 29th March 2020 - 03:42:09