Welcome Guest ( Log In | Register )

> И неформату есть предел.

Рэп/хип-хоп/шансон/поп удаляются. Для них есть свои порталы.

 
Reply to this topicStart new topic
> Agenda - Земли, Которых Нет На Картах (2016), Alternative/Atmospheric Rock/Punk (D4)
post Mar 16 2020, 15:34:39
Post #1

Маньяк
**********
Group: Металариец
Posts: 1,009
Releases: 182
On Forums: 11 years 4 months
Thanks: 3593 time(s)
Russian Federation


(IMG:http://metalarea.org/images/audiocovers/2020_Mar/acov_tid334988_thumb.jpg)

*Artist: Agenda
*Album: Земли, Которых Нет На Картах
*Year: 2016
*Genre: Alternative/Atmospheric Rock/Punk
*Country: Russian Federation (IMG:http://metalarea.org/forum/style_images/flags/Russian%20Federation.png)
*Format: mp3@CBR320kbps
*Size: 106MB

Tracklist:
01. Расстрел
02. Уродство
03. Люди
04. Они остались одни
05. Чехарда
06. Клетка
07. Дети
08. Иконы
09. Новый дивный мир
10. Отчуждение
11. Град
12. Камни падают в небо
******************************
Total playing time: 46:02

Preview 1

(IMG:http://metalarea.org/images/youtube.png)


Extended info
AGENDA - это проект музыкантов известного южного дарк-метал коллектива Atra Hora, в котором бразды правления взял в свои руки Янис Георгиади, гитарист, певец и автор потрясающих текстов о жизни, смерти, грязи повседневности и невероятном желании вернуться Домой. В плане музыкально-жанровом материал команды лучше определить словами самих же авторов, которые утверждают, что это atmospheric rock. Смесь средней и поздней Anathema, ДДТ, Pyogenesis, Егора Летова и ещё чего-то, что каждый определит и идентифицирует только сам.
Читать далее

Состав:
Янис Георгиади - Вокал, Гитара
Алексей Георгиади - Бас
Всеволод Михайлов - Гитара
Юрий Шевченко - Ударные, Перкуссия, Кахон


Technical info
(IMG:http://metalarea.org/images/spectrogram/2020_Mar/4695a1dac775a5f187bc94d2df7a0247.png)
Input File: 01-Расстрел.mp3
Channels : 2
Sample Rate : 44100
Precision : 16-bit
Duration : 00:05:17.55 = 14004087 samples = 23816.5 CDDA sectors
File Size : 12.7M
Bit Rate : 320k
Sample Encoding: MPEG audio (layer I, II or III)
Comments :
Title=Расстрел
Artist=Agenda
Album=Земли, которых нет на картах...
Tracknumber=1
Year=2016
Genre=Alternative



Register


Go to the top of the page
  Insert nick Quick quote
+Quote Post

Reply to this topicStart new topic
1 User(s) are reading this topic (1 Guests and 0 Anonymous Users)
0 Members:

 



- Lo-Fi Version Support form
Copyrights and abuse reports form
Time is now: 29th March 2020 - 04:59:48