Welcome Guest ( Log In | Register )

> И неформату есть предел.

Рэп/хип-хоп/шансон/поп удаляются. Для них есть свои порталы.

> Agenda - Мы Вернёмся (2017), Alternative/Atmospheric Rock/Punk (D4)
post Mar 16 2020, 16:36:42
Post #1

Маньяк
**********
Group: Металариец
Posts: 1,009
Releases: 182
On Forums: 11 years 4 months
Thanks: 3593 time(s)
Russian Federation


(IMG:http://metalarea.org/images/audiocovers/2020_Mar/acov_tid334992_thumb.jpg)

*Artist: Agenda
*Album: Мы Вернёмся
*Year: 2017
*Genre: Alternative/Atmospheric Rock/Punk
*Country: Russian Federation (IMG:http://metalarea.org/forum/style_images/flags/Russian%20Federation.png)
*Format: mp3@CBR320kbps
*Size: 107MB

Tracklist:
01. Нахожу себя
02. Мы вернёмся
03. Град небесный
04. Каин
05. Война
06. Возвращайся
07. Райский сад
08. Неба край
09. Это было давно
10. Не быть гадом
11. Отшумели
12. Пралайя
******************************
Total playing time: 46:44


Preview 2
Preview 3

Extended info
Второй полноформатник пятигорской группы Agenda, которая была создана в 2015 г. как сайд-проект музыкантов Dark/Death Metal формации Atra Hora.

Состав:
Янис Георгиади - вокал, гитара
Алексей Георгиади - бас
Юрий "Герих" Шевченко - ударные, перкуссия, кахон


Technical info
(IMG:http://metalarea.org/images/spectrogram/2020_Mar/4c0fd1c33a981493343bf9d4a7d6edbd.png)
Input File: 03-Град небесный.mp3
Channels : 2
Sample Rate : 44100
Precision : 16-bit
Duration : 00:04:37.65 = 12244233 samples = 20823.5 CDDA sectors
File Size : 11.1M
Bit Rate : 320k
Sample Encoding: MPEG audio (layer I, II or III)
Comments :
Title=Град небесный
Artist=Agenda
Album=Мы Вернёмся
Tracknumber=3
Year=2017
Genre=Rap-Rock



Register


Thanks:
Go to the top of the page
  Insert nick Quick quote
+Quote Post
 
Start new topic
Replies (1 - 1)
post Mar 17 2020, 11:30:42
Post #2

Маньяк
**********
Group: Металариец
Posts: 1,009
Releases: 182
On Forums: 11 years 4 months
Thanks: 3593 time(s)
Russian Federation


FLAC tracks
Register
Go to the top of the page
  Insert nick Quick quote
+Quote Post

Reply to this topicStart new topic
1 User(s) are reading this topic (1 Guests and 0 Anonymous Users)
0 Members:

 



- Lo-Fi Version Support form
Copyrights and abuse reports form
Time is now: 29th March 2020 - 04:42:43