Welcome Guest ( Log In | Register )

> И неформату есть предел.

Рэп/хип-хоп/шансон/поп удаляются. Для них есть свои порталы.

 
Reply to this topicStart new topic
> Agenda - На Свет (2019), Alternative/Atmospheric Rock/Punk (D4)
post Mar 16 2020, 17:11:39
Post #1

Маньяк
**********
Group: Металариец
Posts: 1,015
Releases: 183
On Forums: 11 years 4 months
Thanks: 3646 time(s)
Russian Federation


(IMG:http://metalarea.org/images/audiocovers/2020_Mar/acov_tid334996_thumb.jpg)

*Artist: Agenda
*Album: На Свет
*Year: 2019
*Genre: Alternative/Atmospheric Rock/Punk
*Country: Russian Federation (IMG:http://metalarea.org/forum/style_images/flags/Russian%20Federation.png)
*Format: mp3@CBR320kbps
*Size: 103MB

Tracklist:
01. Мёртвая вода 03:24
02. Ебанаты 05:04
03. Зазеркалье 05:10
04. На свет 07:57
05. Живая вода 03:51
06. Одной нитью 04:34
07. А нам с тобой 04:33
08. Когда поймёшь 03:38
09. Нет смерти 06:48
******************************
Total playing time: 44:59

Preview 1
Preview 2

Extended info
Состав:
Янис Георгиади - вокал, гитара
Алексей Георгиади - бас
Юрий "Герих" Шевченко - ударные, перкуссия, кахон


Technical info
(IMG:http://metalarea.org/images/spectrogram/2020_Mar/faefa0bcb6bd0dc7624fd215a1960aeb.png)
Input File: 02-Ебанаты.mp3
Channels : 2
Sample Rate : 44100
Precision : 16-bit
Duration : 00:05:04.29 = 13419365 samples = 22822 CDDA sectors
File Size : 12.2M
Bit Rate : 320k
Sample Encoding: MPEG audio (layer I, II or III)
Comments :
Title=Ебанаты
Artist=Agenda
Album=На Свет
Tracknumber=2
Year=2019
Genre=Alternative Rock, Grunge



Register


Thanks:
Go to the top of the page
  Insert nick Quick quote
+Quote Post

Reply to this topicStart new topic
1 User(s) are reading this topic (1 Guests and 0 Anonymous Users)
0 Members:

 



- Lo-Fi Version Support form
Copyrights and abuse reports form
Time is now: 3rd April 2020 - 16:59:51