Welcome Guest ( Log In | Register )

> Rawrorr - Cynism (2020), Blackened Death/Doom Metal
post Mar 16 2020, 22:29:01
Post #1
BAN
Banned till
Sep 9 2021, 02:13:52



(IMG:https://metalarea.org/images/audiocovers/2020_Mar/acov_tid335000_thumb.jpg)

*Artist: Rawrorr
*Album: Cynism
*Year: 2020
*Genre: Blackened Death/Doom Metal
*Country: Ukraine (IMG:https://metalarea.org/forum/style_images/flags/Ukraine.png)
*Format: mp3@CBR320kbps
*Size: 82MB

Tracklist:
01. Mystic Cult Of Ritual Degradation
02. Beholder Of Abyss
03. The Great Replacement
04. Rеіснsterror Horror
05. Mind Self Ejaculation
06. Paleoanthrop
07. Lazy Worm Die First In Josef Hand
08. Blindsight
******************************
Total playing time: 36:42

Preview 1




Technical info
(IMG:https://metalarea.org/images/spectrogram/2020_Mar/20c1e582c94020f60329d83d176cef08.png)
Input File: 06. Paleoanthrop.mp3
Channels : 2
Sample Rate : 44100
Precision : 16-bit
Duration : 00:04:24.74 = 11675122 samples = 19855.6 CDDA sectors
File Size : 10.6M
Bit Rate : 320k
Sample Encoding: MPEG audio (layer I, II or III)
Comments :
Title=Paleoanthrop
Artist=Rawrorr
Album=Cynism
Tracknumber=6
Year=2020
Genre=pizdetz



Register


Go to the top of the page
  Insert nick Quick quote
+Quote Post
14 Pages V  « < 12 13 14  
Start new topic
Replies (390 - 395)
post Sep 3 2020, 08:03:38
Post #391

Два Литра
**
Group: Завсегдатай
Posts: 129
Releases: 1
From: Украина
On Forums: 8 years 6 months
Thanks: 167 time(s)
Ukraine


высылайте реквизиты. Фо только на грузовое поедет, отделения до 30 кг не примут посылку


Thanks:
(1) Tarelka,
Go to the top of the page
  Insert nick Quick quote
+Quote Post
post Oct 12 2020, 21:20:53
Post #392

Group: Дух
Posts: 2
Releases: 0
On Forums: 2 months 4 weeks
Thanks: 2 time(s)
Unknown


Беседа с участником Rawrorr
https://blodreg.com/episodes/forstrat_pt2/


Thanks:
Go to the top of the page
  Insert nick Quick quote
+Quote Post
post Oct 12 2020, 21:43:52
Post #393

В чистоте и единстве:мысль-слово-дело
**************
Group: Металариец
Posts: 2,464
Releases: 9
From: Киев
On Forums: 13 years 3 months
Thanks: 1466 time(s)
Ukraine


ЦИТАТА(blodreg @ 12th October 2020 - 23:20:53) *
Беседа с участником Rawrorr
https://blodreg.com/episodes/forstrat_pt2/

Очень естественное интервью


Thanks:
Go to the top of the page
  Insert nick Quick quote
+Quote Post
post Oct 13 2020, 05:59:35
Post #394

Котеги! Нравяцо котеги?
**************
Group: Металариец
Posts: 6,582
Releases: 0
From: Терра Инкогнита
On Forums: 10 years 4 months
Thanks: 2969 time(s)
Russian Federation


можно краткий пересказ для тех, кому лень слушать?
Go to the top of the page
  Insert nick Quick quote
+Quote Post
post Oct 17 2020, 20:51:38
Post #395

Мегаманьяк
***********
Group: Металариец
Posts: 1,723
Releases: 1
On Forums: 5 years 11 months
Thanks: 633 time(s)
Tajikistan


Кстати в фейсбуках Rawrorr стали популярны, наткнулся на видосы в пабликах железных
Go to the top of the page
  Insert nick Quick quote
+Quote Post
post Oct 18 2020, 09:53:00
Post #396

melofags sniper
**************
Group: Металариец
Posts: 5,668
Releases: 0
On Forums: 12 years 7 months
Thanks: 5305 time(s)
Unknown


QUOTE(blodreg @ Oct 12 2020, 22:20:53) *
Беседа с участником Rawrorr
https://blodreg.com/episodes/forstrat_pt2/

Words of a true wise humanist, unfortunately often unfairly affected by censorship... (IMG:style_emoticons/default/9.gif)
Go to the top of the page
  Insert nick Quick quote
+Quote Post

14 Pages V  « < 12 13 14
Reply to this topicStart new topic
2 User(s) are reading this topic (2 Guests and 0 Anonymous Users)
0 Members:

 



- Lo-Fi Version Support form
Copyrights and abuse reports form
Time is now: 21st October 2020 - 11:03:47