Welcome Guest ( Log In | Register )

> И неформату есть предел.

Рэп/хип-хоп/шансон/поп удаляются. Для них есть свои порталы.

 
Reply to this topicStart new topic
> Downy - 第七作品集『無題』 (2020), Experimental/Math Rock/Alternative/Shoegaze
post Mar 18 2020, 20:33:13
Post #1

Don't be negative.
**************
Group: Металариец
Posts: 2,851
Releases: 750
From: Earthmother
On Forums: 9 years 6 months
Thanks: 10051 time(s)
Ukraine


(IMG:http://metalarea.org/images/audiocovers/2020_Mar/acov_tid335038_thumb.jpg)

*Artist: Downy
*Album: 第七作品集『無題』
*Year: 2020
*Genre: Experimental/Math Rock/Alternative/Shoegaze
*Country: Japan (IMG:http://metalarea.org/forum/style_images/flags/Japan.png)
*Format: mp3@CBR320kbps
*Size: 113MB

Tracklist:
01. コントラポスト 05:20
02. 視界不良 04:21
03. 36.2° 01:25
04. good news 04:51
05. 角砂糖 04:30
06. ゼラニウム 03:37
07. 砂上、燃ユ。残像 04:09
08. pianoid 04:59
09. 鮮やぐ視点 05:22
10. adaptation 05:40
11. stand alone 04:02
******************************
Total playing time: 48:16

Preview 1

Preview 3

Extended info
Formed in April 2000.
consisting of 5 members including a visual production.
They are recognized as one the pioneers of Japanese post-rock and live performance of synchronization, fused by the session that used many Irregular meter and videos. In their live performances, they create innovative and very unique sound and space by their original audio-visual appeal.
They create and produce music video also and such videos had great reputation even in the wolrd largest digital film festival RESFEST.



Technical info
(IMG:http://metalarea.org/images/spectrogram/2020_Mar/04cccaba4302cb80f695c9b8a41935de.png)
Input File: 11 - stand alone.mp3
Channels : 2
Sample Rate : 48000
Precision : 16-bit
Duration : 00:04:02.96 = 11661840 samples ~ 18221.6 CDDA sectors
File Size : 9.72M
Bit Rate : 320k
Sample Encoding: MPEG audio (layer I, II or III)
Comments :
Title=stand alone
Artist=downy
Album=第七作品集『無題』
Tracknumber=11/11
Year=2020
Discnumber=1/1



Register


Go to the top of the page
  Insert nick Quick quote
+Quote Post

Reply to this topicStart new topic
1 User(s) are reading this topic (1 Guests and 0 Anonymous Users)
0 Members:

 



- Lo-Fi Version Support form
Copyrights and abuse reports form
Time is now: 29th March 2020 - 04:17:09