Welcome Guest ( Log In | Register )

> И неформату есть предел.

Рэп/хип-хоп/шансон/поп удаляются. Для них есть свои порталы.

> Yazz Ahmed - Finding My Way Home (2011), Psychedelic Jazz/Fusion
post Mar 19 2020, 13:35:26
Post #1

Правь статус, ####!111
**************
Group: Металариец
Posts: 45,740
Releases: 705
On Forums: 10 years 10 months
Thanks: 37726 time(s)
Russian Federation


(IMG:http://metalarea.org/images/audiocovers/2020_Mar/acov_tid335061_thumb.jpg)

*Artist: Yazz Ahmed
*Album: Finding My Way Home
*Year: 2011
*Genre: Psychedelic Jazz/Fusion
*Country: United Kingdom (IMG:http://metalarea.org/forum/style_images/flags/United%20Kingdom.png)
*Format: mp3@CBR320kbps
*Size: 91MB

Tracklist:
1. Embarkation 01:51
2. Wah-Wah Sowahwah 07:32
3. Al Muharraq 02:17
4. Flip Flop 05:22
5. Affirmation 05:45
6. Conciliation 05:22
9. The Birth of the Fool 01:35
10. Finding My Way Home 10:04
******************************
Total playing time: 39:48



Technical info
(IMG:http://metalarea.org/images/spectrogram/2020_Mar/db0f933e3498299781812000bf3b4ddf.png)
Input File: 01. Embarkation.mp3
Channels : 2
Sample Rate : 44100
Precision : 16-bit
Duration : 00:01:51.24 = 4905464 samples = 8342.63 CDDA sectors
File Size : 4.49M
Bit Rate : 323k
Sample Encoding: MPEG audio (layer I, II or III)
Comments :
Title=Embarkation
Artist=Yazz Ahmed
Album=Finding My Way Home
Tracknumber=1/10
Year=2011
Discnumber=1/1



Register


Go to the top of the page
  Insert nick Quick quote
+Quote Post
 
Start new topic
Replies (1 - 1)
post Mar 20 2020, 08:43:38
Post #2

Правь статус, ####!111
**************
Group: Металариец
Posts: 45,740
Releases: 705
On Forums: 10 years 10 months
Thanks: 37726 time(s)
Russian Federation


Волшебная музыка (IMG:style_emoticons/default/20.gif)
Go to the top of the page
  Insert nick Quick quote
+Quote Post

Reply to this topicStart new topic
1 User(s) are reading this topic (1 Guests and 0 Anonymous Users)
0 Members:

 



- Lo-Fi Version Support form
Copyrights and abuse reports form
Time is now: 3rd April 2020 - 18:11:36