Welcome Guest ( Log In | Register )

> И неформату есть предел.

Рэп/хип-хоп/шансон/поп удаляются. Для них есть свои порталы.

> Yazz Ahmed - La Saboteuse (2017), Psychedelic Jazz/Fusion
post Mar 19 2020, 13:42:08
Post #1

Правь статус, ####!111
**************
Group: Металариец
Posts: 45,596
Releases: 703
On Forums: 10 years 9 months
Thanks: 37525 time(s)
Russian Federation


(IMG:http://metalarea.org/images/audiocovers/2020_Mar/acov_tid335062_thumb.jpg)

*Artist: Yazz Ahmed
*Album: La Saboteuse
*Year: 2017
*Genre: Psychedelic Jazz/Fusion
*Country: United Kingdom (IMG:http://metalarea.org/forum/style_images/flags/United%20Kingdom.png)
*Format: mp3@CBR320kbps
*Size: 121MB

Tracklist:
1. Inhale 01:21
2. Jamil Jamal 08:12
3. Misophonia 01:13
4. The Space Between The Fish and The Moon 05:02
5. La Saboteuse 04:31
6. Al Emadi 06:15
7. Inspiration Expiration 01:01
8. The Lost Pearl 07:19
9. Bloom 05:07
10. Belielle 07:22
11. Whirling 00:42
12. Organ Eternal 07:22
13. Exhale 01:26
******************************
Total playing time: 56:53



Technical info
(IMG:http://metalarea.org/images/spectrogram/2020_Mar/d3754cb99842b1d126df081deb169235.png)
Input File: 01-inhale.mp3
Channels : 2
Sample Rate : 44100
Precision : 16-bit
Duration : 00:01:21.27 = 3584183 samples = 6095.55 CDDA sectors
File Size : 3.57M
Bit Rate : 351k
Sample Encoding: MPEG audio (layer I, II or III)
Comments :
Title=Inhale
Artist=Yazz Ahmed
Album=La Saboteuse
Tracknumber=1/13
Year=2017
Genre=8



Register


Go to the top of the page
  Insert nick Quick quote
+Quote Post
 
Start new topic
Replies (1 - 1)
post Mar 20 2020, 08:44:37
Post #2

Правь статус, ####!111
**************
Group: Металариец
Posts: 45,596
Releases: 703
On Forums: 10 years 9 months
Thanks: 37525 time(s)
Russian Federation


Прелестно (IMG:style_emoticons/default/pray.gif)
Go to the top of the page
  Insert nick Quick quote
+Quote Post

Reply to this topicStart new topic
1 User(s) are reading this topic (1 Guests and 0 Anonymous Users)
0 Members:

 



- Lo-Fi Version Support form
Copyrights and abuse reports form
Time is now: 29th March 2020 - 04:47:04