Welcome Guest ( Log In | Register )

> И неформату есть предел.

Рэп/хип-хоп/шансон/поп удаляются. Для них есть свои порталы.

> Zone Six - Forever Hugo (2017), Psychedelic/Acid/Space Rock
post Mar 19 2020, 15:06:44
Post #1

Правь статус, ####!111
**************
Group: Металариец
Posts: 45,740
Releases: 705
On Forums: 10 years 10 months
Thanks: 37725 time(s)
Russian Federation


(IMG:http://metalarea.org/images/audiocovers/2020_Mar/acov_tid335074_thumb.jpg)

*Artist: Zone Six
*Album: Forever Hugo
*Year: 2017
*Genre: Psychedelic/Acid/Space Rock
*Country: Germany (IMG:http://metalarea.org/forum/style_images/flags/Germany.png)
*Format: mp3@CBR320kbps
*Size: 101MB

Tracklist:
1. Surfin’ Shiva 21:31
2. A Million Little Shivas 22:54
******************************
Total playing time: 44:25



Technical info
(IMG:http://metalarea.org/images/spectrogram/2020_Mar/d3cfc7f3cc7aecf08994e8ebfc25ef07.png)
Input File: Zone Six - A Million Little Shivas.mp3
Channels : 2
Sample Rate : 44100
Precision : 16-bit
Duration : 00:22:54.25 = 60604293 samples = 103069 CDDA sectors
File Size : 55.1M
Bit Rate : 321k
Sample Encoding: MPEG audio (layer I, II or III)
Comments :
Title=A Million Little Shivas
Artist=Zone Six
Album=Forever Hugo
Tracknumber=2
Year=2017
Genre=Psychedelic Rock



Register


Go to the top of the page
  Insert nick Quick quote
+Quote Post
 
Start new topic
Replies (1 - 1)
post Mar 20 2020, 08:30:14
Post #2

Правь статус, ####!111
**************
Group: Металариец
Posts: 45,740
Releases: 705
On Forums: 10 years 10 months
Thanks: 37725 time(s)
Russian Federation


Как и всегда у Дэйва Шмита - просто шикарно, на этот раз с восточными мотивцами, умело и органично вплетенными в полотно.

Drop Acid!
Go to the top of the page
  Insert nick Quick quote
+Quote Post

Reply to this topicStart new topic
1 User(s) are reading this topic (1 Guests and 0 Anonymous Users)
0 Members:

 



- Lo-Fi Version Support form
Copyrights and abuse reports form
Time is now: 3rd April 2020 - 17:40:58