Welcome Guest ( Log In | Register )

> Efémero - Movimento Efémero Do Cosmos (2020), Atmospheric Black Metal
post Mar 20 2020, 08:44:22
Post #1

Правь статус, ####!111
**************
Group: Металариец
Posts: 22,292
Releases: 15430
From: Г.Харьков
On Forums: 8 years 1 month
Thanks: 282372 time(s)
Unknown


(IMG:https://metalarea.org/images/audiocovers/2020_Mar/acov_tid335102_thumb.jpg)

*Artist: Efémero
*Album: Movimento Efémero Do Cosmos
*Year: 2020
*Genre: Atmospheric Black Metal
*Country: Portugal (IMG:https://metalarea.org/forum/style_images/flags/Portugal.png)
*Format: mp3@CBR320kbps
*Size: 95MB

Tracklist:
1. Desvanecer 11:01
2. 雨女 10:56
3. Geosmina 09:38
4. Antártica 09:23
******************************
Total playing time: 40:58



Extended info
Certã - All instruments and Vocals.


Technical info
(IMG:https://metalarea.org/images/spectrogram/2020_Mar/02dbd470a3d1369dd2a6d22cc1c79606.png)
Input File: 03 - Geosmina.mp3
Channels : 2
Sample Rate : 44100
Precision : 16-bit
Duration : 00:09:38.26 = 25501046 samples = 43369.1 CDDA sectors
File Size : 23.4M
Bit Rate : 324k
Sample Encoding: MPEG audio (layer I, II or III)
Comments :
Title=Geosmina
Artist=Efemero
Album=Movimento Efémero do Cosmos
Tracknumber=3
Year=2020



Register


Go to the top of the page
  Insert nick Quick quote
+Quote Post
 
Start new topic
Replies (1 - 1)
post Jun 30 2020, 17:19:03
Post #2

Два Литра
**
Group: Завсегдатай
Posts: 110
Releases: 0
From: Moscow/Kiev
On Forums: 14 years 5 months
Thanks: 65 time(s)
Russian Federation


Я очень люблю Bann, жаль, что их хватило только на 2 альбома.
Но там хоть гитарная работа была иногда интересной, здесь же только однородная клавишная мазня под шипение вокала и невыразительное жужжание гитары.
Go to the top of the page
  Insert nick Quick quote
+Quote Post

Reply to this topicStart new topic
2 User(s) are reading this topic (2 Guests and 0 Anonymous Users)
0 Members:

 



- Lo-Fi Version Support form
Copyrights and abuse reports form
Time is now: 8th July 2020 - 23:49:00