Welcome Guest ( Log In | Register )

> И неформату есть предел.

Рэп/хип-хоп/шансон/поп удаляются. Для них есть свои порталы.

> Siena Root - The Secret Of Our Time (2020), Psychedelic/Progressive/Hard Rock (D7)
post Mar 20 2020, 13:54:26
Post #1

Правь статус, ####!111
**************
Group: Металариец
Posts: 45,596
Releases: 703
On Forums: 10 years 9 months
Thanks: 37525 time(s)
Russian Federation


(IMG:http://metalarea.org/images/audiocovers/2020_Mar/acov_tid335118_thumb.jpg)

*Artist: Siena Root
*Album: The Secret Of Our Time
*Year: 2020
*Genre: Psychedelic/Progressive/Hard Rock
*Country: Sweden (IMG:http://metalarea.org/forum/style_images/flags/Sweden.png)
*Format: mp3@CBR320kbps
*Size: 97MB

Tracklist:
1. Final Stand 06:09
2. Siren Song 03:50
3. Organic Intelligence 03:37
4. Mender 03:40
5. In Your Head 04:31
6. When A Fool Wears The Crown 04:08
7. Daughter Of The Mountains 05:20
8. Have No Fear 05:26
9. Imaginary Borders 06:13
******************************
Total playing time: 42:54

(IMG:http://metalarea.org/images/youtube.png)

Technical info
(IMG:http://metalarea.org/images/spectrogram/2020_Mar/eee09fe2e4f5042e0987c9f64cc45bbd.png)
Input File: 01. Final Stand.mp3
Channels : 2
Sample Rate : 44100
Precision : 16-bit
Duration : 00:06:09.32 = 16286836 samples = 27698.7 CDDA sectors
File Size : 14.8M
Bit Rate : 321k
Sample Encoding: MPEG audio (layer I, II or III)
Comments :
Title=Final Stand
Artist=Siena Root
Album=The Secret Of Our Time
Tracknumber=1
Year=2020
Genre=Progressive Rock



Register


Go to the top of the page
  Insert nick Quick quote
+Quote Post
 
Start new topic
Replies (1 - 1)
post Mar 21 2020, 09:31:29
Post #2

Правь статус, ####!111
**************
Group: Металариец
Posts: 45,596
Releases: 703
On Forums: 10 years 9 months
Thanks: 37525 time(s)
Russian Federation


Отличный нафталин.
Go to the top of the page
  Insert nick Quick quote
+Quote Post

Reply to this topicStart new topic
1 User(s) are reading this topic (1 Guests and 0 Anonymous Users)
0 Members:

 



- Lo-Fi Version Support form
Copyrights and abuse reports form
Time is now: 29th March 2020 - 04:04:34