Welcome Guest ( Log In | Register )

> И неформату есть предел.

Рэп/хип-хоп/шансон/поп удаляются. Для них есть свои порталы.

 
Reply to this topicStart new topic
> Nam-Khar - Sur Chöd (2020), Dark Ambient/Ritual/Drone/Experimental
post Mar 20 2020, 22:08:29
Post #1

Маньяк
**********
Group: Металариец
Posts: 1,009
Releases: 182
On Forums: 11 years 4 months
Thanks: 3593 time(s)
Russian Federation


(IMG:http://metalarea.org/images/audiocovers/2020_Mar/acov_tid335134_thumb.jpg)

*Artist: Nam-Khar
*Album: Sur Chöd
*Year: 2020
*Genre: Dark Ambient/Ritual/Drone/Experimental
*Country: Netherlands (IMG:http://metalarea.org/forum/style_images/flags/Netherlands.png)
*Format: mp3@CBR320kbps
*Size: 142MB

Tracklist:
01. Dgra Lha 08:38
02. aDre 13:00
03. Dregs Pa 07:19
04. gNod sybyin 10:09
05. Gangs chen mdzod lnga 09:41
06. T'ew rang 13:09
******************************
Total playing time: 1:01:56

(IMG:http://metalarea.org/images/myspace.png)

Preview 3


Extended info


On "Sur Chöd" Nam-Khar are:
Boenke, Gossmann, Gyaltsen, Martinegou, Prochir.

The Track "T´ew rang" is a collaboration with Akoustik Timbre Frekuency.

All music by Nam-Khar.
Mastered by Robin Storey/Rapoon.
Cover artwork and design by Midnight Sun Studio.


Technical info
(IMG:http://metalarea.org/images/spectrogram/2020_Mar/4b3c9ef9629726b561a1c2236868ae2f.png)
Input File: 04-gNod sybyin.mp3
Channels : 2
Sample Rate : 48000
Precision : 16-bit
Duration : 00:10:08.64 = 29214864 samples ~ 45648.2 CDDA sectors
File Size : 24.3M
Bit Rate : 320k
Sample Encoding: MPEG audio (layer I, II or III)
Comments :
Title=gNod sybyin
Artist=Nam-Khar
Album=Sur Chöd
Tracknumber=4
Year=2020
Genre=Dark Ambient/Drone/Experimental



Register


Go to the top of the page
  Insert nick Quick quote
+Quote Post

Reply to this topicStart new topic
1 User(s) are reading this topic (1 Guests and 0 Anonymous Users)
0 Members:

 



- Lo-Fi Version Support form
Copyrights and abuse reports form
Time is now: 29th March 2020 - 04:24:49