Welcome Guest ( Log In | Register )

> Ikarass - Relapse Into Desolation (2020), Doom/Post-Metal
post Mar 21 2020, 09:28:23
Post #1

Правь статус, ####!111
**************
Group: Металариец
Posts: 25,223
Releases: 17976
From: Г.Харьков
On Forums: 8 years 9 months
Thanks: 351687 time(s)
Unknown


(IMG:http://metalarea.org/images/audiocovers/2020_Mar/acov_tid335150_thumb.jpg)

*Artist: Ikarass
*Album: Relapse Into Desolation
*Year: 2020
*Genre: Doom/Post-Metal
*Country: Spain (IMG:http://metalarea.org/forum/style_images/flags/Spain.png)
*Format: mp3@CBR320kbps
*Size: 108MB

Tracklist:
1. Guided by Greed 12:49
2. Blood Heaven 08:44
3. Descend 10:43
4. Relapse into Desolation 08:02
5. Deception 06:58
******************************
Total playing time: 47:16




Extended info
Unai Baseta Bass
Imanol Bernaola Drums
Matio Baños Guitars
Hodei G. Mendiguren Guitars
Imanol M. Aginako Vocals


Technical info
(IMG:http://metalarea.org/images/spectrogram/2020_Mar/362818ccfacd77d932276a9ff506179c.png)
Input File: 02 - Blood Heaven.mp3
Channels : 2
Sample Rate : 44100
Precision : 16-bit
Duration : 00:08:44.44 = 23127804 samples = 39333 CDDA sectors
File Size : 21.0M
Bit Rate : 321k
Sample Encoding: MPEG audio (layer I, II or III)
Comments :
Title=Blood Heaven
Artist=Ikarass
Album=Relapse into Desolation
Tracknumber=2
Year=2020



Register


Go to the top of the page
  Insert nick Quick quote
+Quote Post
 
Start new topic
Replies (1 - 5)
post Mar 21 2020, 13:31:34
Post #2

Правь статус, ####!111
**************
Group: Металариец
Posts: 25,223
Releases: 17976
From: Г.Харьков
On Forums: 8 years 9 months
Thanks: 351687 time(s)
Unknown


Cloud Mail 320
Register


Thanks:
(1) J0k3r,
Go to the top of the page
  Insert nick Quick quote
+Quote Post
post Mar 21 2020, 17:11:38
Post #3

Три Литра
***
Group: Завсегдатай
Posts: 207
Releases: 0
From: минск сити
On Forums: 11 years 8 months
Thanks: 66 time(s)
Belarus


судя по превью Cult of Luna worship.
Go to the top of the page
  Insert nick Quick quote
+Quote Post
post Jan 13 2021, 21:11:37
Post #4

FOLK METAL FEVER
**************
Group: Металариец
Posts: 2,201
Releases: 6
From: Kyiv
On Forums: 13 years 3 months
Thanks: 287 time(s)
Ukraine


Неплохо, но слишком однобразно.
Go to the top of the page
  Insert nick Quick quote
+Quote Post
post Jan 13 2021, 21:31:11
Post #5

Правь статус, ####!111
**************
Group: Металариец
Posts: 48,324
Releases: 786
On Forums: 11 years 9 months
Thanks: 42132 time(s)
Russian Federation


ЦИТАТА(дивин @ Mar 21 2020, 20:11:38) *
судя по превью Cult of Luna worship.


Да, только серый и невыразительный.

Всё одно лучше оригинал переслушать.
Go to the top of the page
  Insert nick Quick quote
+Quote Post
post Feb 23 2021, 19:20:05
Post #6

Восемь Литров
********
Group: Металариец
Posts: 829
Releases: 0
On Forums: 13 years 4 months
Thanks: 370 time(s)
Poland


Прекрасная, яркая, потрясающая работа.
Go to the top of the page
  Insert nick Quick quote
+Quote Post

Reply to this topicStart new topic
1 User(s) are reading this topic (1 Guests and 0 Anonymous Users)
0 Members:

 



- Lo-Fi Version Support form
Copyrights and abuse reports form
Time is now: 6th March 2021 - 06:29:47