Welcome Guest ( Log In | Register )

> Temple Of Void - The World That Was (2020), Death/Doom Metal
post Mar 22 2020, 04:53:27
Post #1

Правь статус, ####!111
**************
Group: Металариец
Posts: 22,266
Releases: 15420
From: Г.Харьков
On Forums: 8 years 1 month
Thanks: 281839 time(s)
Unknown


(IMG:http://metalarea.org/images/audiocovers/2020_Mar/acov_tid335173_thumb.jpg)

*Artist: Temple Of Void
*Album: The World That Was
*Year: 2020
*Genre: Death/Doom Metal
*Country: United States (IMG:http://metalarea.org/forum/style_images/flags/United%20States.png)
*Format: mp3@CBR320kbps
*Size: 86MB

Tracklist:
1. A Beast Among Us 06:53
2. Self-Schism 06:28
3. A Single Obolous 01:40
4. Leave the Light Behind 05:19
5. Casket of Shame 07:39
6. The World That Was 09:38
******************************
Total playing time: 37:37




Extended info
Brent Satterly Bass
Jason Pearce Drums
Alex Awn Guitars, Synthesizers (track 4)
Mike Erdody Vocals, Guitars (track 3)
Don Durr Guitars


Technical info
(IMG:http://metalarea.org/images/spectrogram/2020_Mar/8e3039b7dc70fc9ecfbc967fb4483c46.png)
Input File: 04 - Leave the Light Behind.mp3
Channels : 2
Sample Rate : 44100
Precision : 16-bit
Duration : 00:05:19.63 = 14095639 samples = 23972.2 CDDA sectors
File Size : 13.4M
Bit Rate : 334k
Sample Encoding: MPEG audio (layer I, II or III)
Comments :
Title=Leave The Light Behind
Artist=Temple Of Void
Album=The World That Was
Tracknumber=4/6
Year=2020
Genre=Death Doom Metal



Register


Go to the top of the page
  Insert nick Quick quote
+Quote Post
 
Start new topic
Replies (1 - 8)
post Mar 24 2020, 08:59:37
Post #2

Правь статус, ####!111
**************
Group: Металариец
Posts: 22,266
Releases: 15420
From: Г.Харьков
On Forums: 8 years 1 month
Thanks: 281839 time(s)
Unknown


Cloud Mail 320
Register


Go to the top of the page
  Insert nick Quick quote
+Quote Post
post Mar 25 2020, 19:57:51
Post #3

melofags sniper
**************
Group: Металариец
Posts: 5,149
Releases: 0
From: Одеса
On Forums: 12 years 4 months
Thanks: 4000 time(s)
Ukraine


A bit overrated.
Go to the top of the page
  Insert nick Quick quote
+Quote Post
post Mar 25 2020, 19:59:41
Post #4

Правь статус, ####!111
**************
Group: Металариец
Posts: 46,731
Releases: 730
On Forums: 11 years 1 month
Thanks: 39387 time(s)
Russian Federation


Cover art is magnificent.
Go to the top of the page
  Insert nick Quick quote
+Quote Post
post Apr 8 2020, 14:25:02
Post #5

Правь статус, ####!111
**************
Group: Металариец
Posts: 3,942
Releases: 14
From: Москва и МО
On Forums: 14 years 4 days
Thanks: 1152 time(s)
Russian Federation


Вообще шикарный думовый дэт.
Переслушал диско, но такого жира там не нашел.
Особенно крутой второй трэк, на который сделали клип. Простяцкий рифф, который размазывает дико качественно!
Атмосферно и качево, очень коротко. Напомнило последний Vastum, который также пришелся дико по вкусу.


Thanks:
Go to the top of the page
  Insert nick Quick quote
+Quote Post
post Apr 8 2020, 15:18:50
Post #6
BAN
Banned till
Jul 17 2020, 21:47:37



Вот такой дэт дум я очень люблю. Это именно что замедленный дэт метал, без сторонних влияний.


Thanks:
Go to the top of the page
  Insert nick Quick quote
+Quote Post
post Apr 14 2020, 18:16:00
Post #7

Правь статус, ####!111
**************
Group: Металариец
Posts: 22,266
Releases: 15420
From: Г.Харьков
On Forums: 8 years 1 month
Thanks: 281839 time(s)
Unknown


ЦИТАТА(deatholocaust @ 14th April 2020 - 16:45:23) *
lossless please

FLAC (Tracks) 255 mb
Register


Go to the top of the page
  Insert nick Quick quote
+Quote Post
post Apr 17 2020, 05:33:48
Post #8

Самый Тихий Час
**************
Group: Металариец
Posts: 5,972
Releases: 2
On Forums: 10 years 7 months
Thanks: 2765 time(s)
Unknown


трэк в клипе очень Коффинс напоминает


Thanks:
Go to the top of the page
  Insert nick Quick quote
+Quote Post
post Apr 23 2020, 13:15:24
Post #9

Full-of-Hate
**************
Group: Металариец
Posts: 3,715
Releases: 0
From: Moscow
On Forums: 11 years 4 days
Thanks: 3516 time(s)
Russian Federation


Хм, сторонних влияний на этом альбоме замечено в избытке - чистый вокал (фрагментарно), шугейзно-диссонансные нотки (по вкусу), толика электронных эффектов и подложек (повсеместно). Работа по своему интересная, стержень здесь дэт-думовый, громоздкий, угрожающий, но обыгран с индивидуальным космически-эзотерически-фентезийным подходом. Весьма и весьма не дурно!


Thanks:
Go to the top of the page
  Insert nick Quick quote
+Quote Post

Reply to this topicStart new topic
2 User(s) are reading this topic (2 Guests and 0 Anonymous Users)
0 Members:

 



- Lo-Fi Version Support form
Copyrights and abuse reports form
Time is now: 6th July 2020 - 06:25:56