Welcome Guest ( Log In | Register )

> И неформату есть предел.

Рэп/хип-хоп/шансон/поп удаляются. Для них есть свои порталы.

 
Reply to this topicStart new topic
> Kneel - Interstice (2019), Post-Hardcore/Mathcore
post Mar 22 2020, 14:53:03
Post #1

Все люди - черви.
**********
Group: Металариец
Posts: 1,116
Releases: 133
From: Пхёнъян, Северная Корея
On Forums: 7 years 2 months
Thanks: 4199 time(s)
North Korea


(IMG:https://metalarea.org/images/audiocovers/2020_Mar/acov_tid335192_thumb.jpg)

*Artist: Kneel
*Album: Interstice
*Year: 2019
*Genre: Post-Hardcore/Mathcore
*Country: Portugal (IMG:https://metalarea.org/forum/style_images/flags/Portugal.png)
*Format: mp3@CBR320kbps
*Size: 77MB

Tracklist:
1. Murmurs
2. Amend
3. Occlusion
4. Lessening
5. Absence
6. Cloak
7. Debris
8. Thrall
9. Sovereignty
******************************
Total playing time: 35:52


(IMG:https://metalarea.org/images/youtube.png)

Technical info
(IMG:https://metalarea.org/images/spectrogram/2020_Mar/45db7e7eec611e64218830886374a184.png)
Input File: 03. Occlusion.mp3
Channels : 2
Sample Rate : 44100
Precision : 16-bit
Duration : 00:04:12.80 = 11148656 samples = 18960.3 CDDA sectors
File Size : 10.2M
Bit Rate : 323k
Sample Encoding: MPEG audio (layer I, II or III)
Comments :
Title=Occlusion
Artist=Kneel
Album=Interstice
Tracknumber=3
Year=2019
Discnumber=1



Register


Go to the top of the page
  Insert nick Quick quote
+Quote Post

Reply to this topicStart new topic
1 User(s) are reading this topic (1 Guests and 0 Anonymous Users)
0 Members:

 



- Lo-Fi Version Support form
Copyrights and abuse reports form
Time is now: 29th March 2020 - 04:20:53