Welcome Guest ( Log In | Register )

> И неформату есть предел.

Рэп/хип-хоп/шансон/поп удаляются. Для них есть свои порталы.

 
Reply to this topicStart new topic
> Khost - Buried Steel (2020), Industrial Metal
post Mar 23 2020, 17:14:28
Post #1

Три Литра
***
Group: Завсегдатай
Posts: 202
Releases: 8
From: Санкт-Петербург
On Forums: 13 years 10 months
Thanks: 645 time(s)
Russian Federation


(IMG:http://metalarea.org/images/audiocovers/2020_Mar/acov_tid335216_thumb.jpg)

*Artist: Khost
*Album: Buried Steel
*Year: 2020
*Genre: Industrial Metal
*Country: United Kingdom (IMG:http://metalarea.org/forum/style_images/flags/United%20Kingdom.png)
*Format: mp3@CBR320kbps
*Size: 122MB

Tracklist:
01. We Will Win 04:06
02. Blood Gutters 6x4x1 04:48
03. Intravener 02:58
04. Yellow Light 01:54
05. Last Furnace 05:34
06. Night Air 04:08
07. Judgement Is Infallible 01:48
08. Kent House 01:17
09. December Bureau 05:27
10. Vandals 01:58
11. Dog Unit 04:14
12. Two 01:19
13. A Non Temporal Crawlspace 04:18
14. Intravener In Dub (Mothboy Remix) 08:123
******************************
Total playing time: 52:02



Technical info
(IMG:http://metalarea.org/images/spectrogram/2020_Mar/d234b38ef994a4895d411d48e7722749.png)
Input File: 01 - We Will Win.mp3
Channels : 2
Sample Rate : 44100
Precision : 16-bit
Duration : 00:04:06.48 = 10869856 samples = 18486.1 CDDA sectors
File Size : 9.91M
Bit Rate : 322k
Sample Encoding: MPEG audio (layer I, II or III)
Comments :
Title=We Will Win
Artist=Khost
Album=Buried Steel
Tracknumber=01
Year=2020
Genre=Industrial Metal



Register


Thanks:
Go to the top of the page
  Insert nick Quick quote
+Quote Post

Reply to this topicStart new topic
1 User(s) are reading this topic (1 Guests and 0 Anonymous Users)
0 Members:

 



- Lo-Fi Version Support form
Copyrights and abuse reports form
Time is now: 29th March 2020 - 04:25:42