Welcome Guest ( Log In | Register )

> Releases Upload / Добавление релизов

Добавить релиз тут / Click here to add release
Рекомендованные обменники / Recommended file shares

> Voland - Bоланд [compilation] (2019), Symphonic/Folk Black Metal (D7)
post Mar 24 2020, 08:09:07
Post #1

Каждое ваше "Спасибо" помогает мне понять, что я делаю новости не напрасно.
**************
Group: Металариец
Posts: 2,479
Releases: 2187
From: Одесса
On Forums: 11 years 10 months
Thanks: 20342 time(s)
Ukraine


(IMG:http://metalarea.org/images/audiocovers/2020_Mar/acov_tid335229_thumb.jpg)

*Artist: Voland
*Album: Bоланд [compilation]
*Year: 2019
*Genre: Symphonic/Folk Black Metal
*Country: Italy (IMG:http://metalarea.org/forum/style_images/flags/Italy.png)
*Format: mp3@CBR320kbps
*Size: 98MB

Tracklist:
1.Leningrad 04:59
2.Generale Inverno 04:48
3.Il lago dei Ciudi 06:18
4.Ataman 04:48
5.1917 06:07
6.Ottobre 05:07
7.Dubina 06:06
8.Outro 02:57 instrumental
******************************
Total playing time: 41:10



Extended info
Line - up:

Haiwas - All instruments (Veratrum, ex-Winter of Souls)
Rimmon - Vocals (Veratrum)


Technical info
(IMG:http://metalarea.org/images/spectrogram/2020_Mar/a8098532b62985d50d351490d2873594.png)
Input File: 08. Voland 2 - Outro.mp3
Channels : 2
Sample Rate : 44100
Precision : 16-bit
Duration : 00:02:57.31 = 7819195 samples = 13298 CDDA sectors
File Size : 7.10M
Bit Rate : 320k
Sample Encoding: MPEG audio (layer I, II or III)
Comments :
Title=Voland 2 - Outro
Artist=Voland
Album=Bîëàíä (Compilation)
Tracknumber=8
Year=2019
Genre=Symphonic/Folk Black Metal



Register


Go to the top of the page
  Insert nick Quick quote
+Quote Post
 
Start new topic
Replies (1 - 2)
post Mar 25 2020, 23:18:11
Post #2

Это просто место… где все подошло к концу.
**************
Group: Металариец
Posts: 5,780
Releases: 0
From: Страны Мамонтов
On Forums: 13 years 1 month
Thanks: 2140 time(s)
Antarctica


Но ведь... Voland никогда не был в Leningrad (IMG:style_emoticons/default/hmm.gif)
Go to the top of the page
  Insert nick Quick quote
+Quote Post
post Mar 25 2020, 23:24:43
Post #3

Правь статус, ####!111
**************
Group: Металариец
Posts: 45,740
Releases: 705
On Forums: 10 years 10 months
Thanks: 37726 time(s)
Russian Federation


Да эти перцы просто по расиянщине ухарают, обрати внимание на трэклист.

Medved, vodka, matreshka и balalaika не хватает...
Go to the top of the page
  Insert nick Quick quote
+Quote Post

Reply to this topicStart new topic
2 User(s) are reading this topic (2 Guests and 0 Anonymous Users)
0 Members:

 



- Lo-Fi Version Support form
Copyrights and abuse reports form
Time is now: 3rd April 2020 - 18:32:06