Welcome Guest ( Log In | Register )

> Releases Upload / Добавление релизов

Добавить релиз тут / Click here to add release
Рекомендованные обменники / Recommended file shares

 
Reply to this topicStart new topic
> Floaters - Roman Holiday (2020), Doom/Sludge/Stoner Metal
post Mar 24 2020, 09:30:40
Post #1

Правь статус, ####!111
**************
Group: Металариец
Posts: 21,258
Releases: 14534
From: Г.Харьков
On Forums: 7 years 10 months
Thanks: 259288 time(s)
Unknown


(IMG:http://metalarea.org/images/audiocovers/2020_Mar/acov_tid335239_thumb.jpg)

*Artist: Floaters
*Album: Roman Holiday
*Year: 2020
*Genre: Doom/Sludge/Stoner Metal
*Country: Japan (IMG:http://metalarea.org/forum/style_images/flags/Japan.png)
*Format: mp3@CBR320kbps
*Size: 92MB

Tracklist:
1. Contaminated 05:16
2. Worthless 06:12
3. We Don't Care About You 04:45
4. The Crown 06:10
5. Shallow Person 06:29
6. Unconscious 04:39
7. Prank 06:48
******************************
Total playing time: 40:19




Extended info
Junichi Ohashi Drums (2013-present)
See also: Inside Charmer, Redwood Blues, ex-Gunship 666
Yu Tanaka Guitars (2013-present)
Mossa-Hiro Bass (2014-present), Vocals (backing) (2014-2016), Vocals (lead) (2016-present)
See also: Inside Charmer, Nepenthes, Redwood Blues


Technical info
(IMG:http://metalarea.org/images/spectrogram/2020_Mar/872725056c88000486122a6b285e4cec.png)
Input File: 04 The Crown.mp3
Channels : 2
Sample Rate : 44100
Precision : 16-bit
Duration : 00:06:10.25 = 16328157 samples = 27769 CDDA sectors
File Size : 14.8M
Bit Rate : 320k
Sample Encoding: MPEG audio (layer I, II or III)
Comments :
Title=The Crown
Artist=Floaters
Album=Roman Holiday
Tracknumber=4
Year=2020
Genre=Metal



Register


Go to the top of the page
  Insert nick Quick quote
+Quote Post

Reply to this topicStart new topic
1 User(s) are reading this topic (1 Guests and 0 Anonymous Users)
0 Members:

 



- Lo-Fi Version Support form
Copyrights and abuse reports form
Time is now: 3rd April 2020 - 18:49:01