Welcome Guest ( Log In | Register )

> Releases Upload / Добавление релизов

Добавить релиз тут / Click here to add release
Рекомендованные обменники / Recommended file shares

 
Reply to this topicStart new topic
> Wolfkrieg - When The Cold Comes (2019), Pagan Black/Death Metal (D)
post Mar 24 2020, 09:57:11
Post #1

Каждое ваше "Спасибо" помогает мне понять, что я делаю новости не напрасно.
**************
Group: Металариец
Posts: 2,479
Releases: 2187
From: Одесса
On Forums: 11 years 10 months
Thanks: 20345 time(s)
Ukraine


(IMG:http://metalarea.org/images/audiocovers/2020_Mar/acov_tid335240_thumb.jpg)

*Artist: Wolfkrieg
*Album: When The Cold Comes
*Year: 2019
*Genre: Pagan Black/Death Metal
*Country: Russian Federation (IMG:http://metalarea.org/forum/style_images/flags/Russian%20Federation.png)
*Format: mp3@CBR320kbps
*Size: 94MB

Tracklist:
1.The Fury of the Giants 03:53
2.Eternal War 05:11
3.Step Into the Flames 04:18
4.We Are the Troops of Doom 04:50
5.Death of Ragnar Lothbrok 04:28
6.When the Cold Comes 04:40
7.Sing Me, Strings 04:52
8.Oblivion and Fear 04:19
9.Children of Svyatoslav 04:02
10.God of Lie 04:49
******************************
Total playing time: 45:22

(IMG:http://metalarea.org/images/youtube.png)

Technical info
(IMG:http://metalarea.org/images/spectrogram/2020_Mar/b8555a53dc18302574f8b2c65c0cec32.png)
Input File: 04. Wolfkrieg - We Are The Troops Of Doom.mp3
Channels : 2
Sample Rate : 44100
Precision : 16-bit
Duration : 00:04:50.07 = 12792131 samples = 21755.3 CDDA sectors
File Size : 11.6M
Bit Rate : 321k
Sample Encoding: MPEG audio (layer I, II or III)
Comments :
Title=We Are The Troops Of Doom
Artist=Wolfkrieg
Album=When The Cold Comes
Tracknumber=04
Year=2019
Genre=Pagan Black/Death Metal



Register


Go to the top of the page
  Insert nick Quick quote
+Quote Post

Reply to this topicStart new topic
1 User(s) are reading this topic (1 Guests and 0 Anonymous Users)
0 Members:

 



- Lo-Fi Version Support form
Copyrights and abuse reports form
Time is now: 3rd April 2020 - 19:24:09