Welcome Guest ( Log In | Register )

> Releases Upload / Добавление релизов

Добавить релиз тут / Click here to add release
Рекомендованные обменники / Recommended file shares

> Dark Fury - Flooded Lands (2019), Black Metal (D)
post Mar 24 2020, 11:19:14
Post #1

Правь статус, ####!111
**************
Group: Металариец
Posts: 45,740
Releases: 705
On Forums: 10 years 10 months
Thanks: 37726 time(s)
Russian Federation


(IMG:http://metalarea.org/images/audiocovers/2020_Mar/acov_tid335241_thumb.jpg)

*Artist: Dark Fury
*Album: Flooded Lands
*Year: 2019
*Genre: Black Metal
*Country: Poland (IMG:http://metalarea.org/forum/style_images/flags/Poland.png)
*Format: mp3@CBR320kbps
*Size: 75MB

Tracklist:
1. Prison of Torment and Blood 04:20
2. Flooded Lands 04:03
3. And When My Time Comes 04:22
4. Going with the Flow 02:47
5. The Modern World 04:27
6. Age of Madness 04:33
7. A Day Will Come...05:07
8. Will You Withstand My Gaze...03:19
******************************
Total playing time: 32:58

(IMG:http://metalarea.org/images/youtube.png)

Technical info
(IMG:http://metalarea.org/images/spectrogram/2020_Mar/10c81987e930c3ace2c3535234cf21b7.png)
Input File: 01. Prison Of Torment And Blood.mp3
Channels : 2
Sample Rate : 44100
Precision : 16-bit
Duration : 00:04:22.39 = 11571443 samples = 19679.3 CDDA sectors
File Size : 10.5M
Bit Rate : 320k
Sample Encoding: MPEG audio (layer I, II or III)
Comments :
Title=Prison Of Torment And Blood
Artist=Dark Fury
Album=Flooded Lands
Tracknumber=01
Year=2019
Genre=NSBM



Register


Go to the top of the page
  Insert nick Quick quote
+Quote Post
 
Start new topic
Replies (1 - 7)
post Mar 25 2020, 09:24:07
Post #2

Правь статус, ####!111
**************
Group: Металариец
Posts: 45,740
Releases: 705
On Forums: 10 years 10 months
Thanks: 37726 time(s)
Russian Federation


@320

Register


Thanks:
(1) 666days,
Go to the top of the page
  Insert nick Quick quote
+Quote Post
post Mar 25 2020, 11:51:08
Post #3

at the top
**************
Group: Металариец
Posts: 4,695
Releases: 0
From: Одесса
On Forums: 12 years 1 month
Thanks: 3248 time(s)
Ukraine


Thanks sir for posting this to the MA masses and spread the quality.


Go to the top of the page
  Insert nick Quick quote
+Quote Post
post Mar 25 2020, 16:46:18
Post #4

Only Death is Real
********
Group: Металариец
Posts: 817
Releases: 0
From: R'lyeh
On Forums: 3 years 3 months
Thanks: 729 time(s)
Poland


This is the true and extreme underground. One of the best albums of Dark Fury and one of the best released in 2019. (IMG:style_emoticons/default/true_black.gif)


Go to the top of the page
  Insert nick Quick quote
+Quote Post
post Mar 25 2020, 16:54:54
Post #5

at the top
**************
Group: Металариец
Posts: 4,695
Releases: 0
From: Одесса
On Forums: 12 years 1 month
Thanks: 3248 time(s)
Ukraine


QUOTE(wolverine @ Mar 25 2020, 16:46:18) *
This is the true and extreme underground. One of the best albums of Dark Fury and one of the best released in 2019. (IMG:style_emoticons/default/true_black.gif)

Great albums from these true humanists.


Go to the top of the page
  Insert nick Quick quote
+Quote Post
post Mar 25 2020, 17:31:41
Post #6

Правь статус, ####!111
**************
Group: Металариец
Posts: 45,740
Releases: 705
On Forums: 10 years 10 months
Thanks: 37726 time(s)
Russian Federation


One of those bands that NEVER disappoints.

All their efforts are mighty and brilliant.

Polish BM at its best.


Go to the top of the page
  Insert nick Quick quote
+Quote Post
post Mar 26 2020, 05:59:00
Post #7

i listen to black metal
**************
Group: Металариец
Posts: 2,552
Releases: 132
From: Москва-Лианозово
On Forums: 13 years 3 months
Thanks: 2133 time(s)
Russian Federation


pagan BM?
Go to the top of the page
  Insert nick Quick quote
+Quote Post
post Mar 26 2020, 07:33:13
Post #8

The Angel Of Death
**************
Group: Металариец
Posts: 5,357
Releases: 48
From: Луганск, 13 регион
On Forums: 14 years 4 months
Thanks: 1698 time(s)
Papua New Guinea


ЦИТАТА(Victim of fate @ 26th March 2020 - 07:59:00) *
pagan BM?

когда-то у них был НС, теперь наверное Паган (IMG:style_emoticons/default/1488.gif)
Go to the top of the page
  Insert nick Quick quote
+Quote Post

Reply to this topicStart new topic
2 User(s) are reading this topic (2 Guests and 0 Anonymous Users)
0 Members:

 



- Lo-Fi Version Support form
Copyrights and abuse reports form
Time is now: 3rd April 2020 - 18:26:46