Welcome Guest ( Log In | Register )

> Releases Upload / Добавление релизов

Добавить релиз тут / Click here to add release
Рекомендованные обменники / Recommended file shares

 
Reply to this topicStart new topic
> Furia - Furia [ep] (2019), Death/Thrash Metal (D)
post Mar 24 2020, 11:41:44
Post #1

Правь статус, ####!111
**************
Group: Металариец
Posts: 21,257
Releases: 14534
From: Г.Харьков
On Forums: 7 years 10 months
Thanks: 259261 time(s)
Unknown


(IMG:http://metalarea.org/images/audiocovers/2020_Mar/acov_tid335242_thumb.jpg)

*Artist: Furia
*Album: Furia [ep]
*Year: 2019
*Genre: Death/Thrash Metal
*Country: Belgium (IMG:http://metalarea.org/forum/style_images/flags/Belgium.png)
*Format: mp3@CBR320kbps
*Size: 30MB

Tracklist:
1. Reborn from Fire 03:51
2. Freedom of the Slave 02:42
3. Digging My Grave 02:57
4. Pray for Nothing 03:18
******************************
Total playing time: 12:48



Extended info
Jan Rammeloo Bass, Vocals (backing)
See also: ex-Bliksem, ex-Diablo Blvd
Toon Huet Guitars, Vocals (backing)
See also: ex-Bliksem
Martin Furia Guitars, Vocals
See also: Bark, ex-Martyr, Marginal, ex-JesusMartyr, ex-Manso Jeremías, ex-The Killing
Jozef de Ridder Drums (2020-present)
See also: Mästürbätör, ex-Objector


Technical info
(IMG:http://metalarea.org/images/spectrogram/2020_Mar/12d1c62854b72676241c29c65d562175.png)
Input File: 01 - Reborn from Fire.mp3
Channels : 2
Sample Rate : 44100
Precision : 16-bit
Duration : 00:03:51.70 = 10217794 samples = 17377.2 CDDA sectors
File Size : 9.43M
Bit Rate : 325k
Sample Encoding: MPEG audio (layer I, II or III)
Comments :
Title=Reborn from Fire
Artist=Furia
Album=Furia
Tracknumber=1
Year=2019-05-20
Genre=Metal
Discnumber=1



Register


Go to the top of the page
  Insert nick Quick quote
+Quote Post

Reply to this topicStart new topic
1 User(s) are reading this topic (1 Guests and 0 Anonymous Users)
0 Members:

 



- Lo-Fi Version Support form
Copyrights and abuse reports form
Time is now: 3rd April 2020 - 16:56:46