Welcome Guest ( Log In | Register )

> И неформату есть предел.

Рэп/хип-хоп/шансон/поп удаляются. Для них есть свои порталы.

> Trip Hill - Psych Weddin (2020), 60´s Acid/Psychedelic Rock/Heavy Psych
post Mar 24 2020, 11:45:12
Post #1

Правь статус, ####!111
**************
Group: Металариец
Posts: 45,596
Releases: 703
On Forums: 10 years 9 months
Thanks: 37525 time(s)
Russian Federation


(IMG:http://metalarea.org/images/audiocovers/2020_Mar/acov_tid335243_thumb.jpg)

*Artist: Trip Hill
*Album: Psych Weddin
*Year: 2020
*Genre: 60´s Acid/Psychedelic Rock/Heavy Psych
*Country: Italy (IMG:http://metalarea.org/forum/style_images/flags/Italy.png)
*Format: mp3@CBR320kbps
*Size: 81MB

Tracklist:
1. Memoriam 05:10
2. Cob 04:25
3. Sally in the Window 03:35
4. Psych Wedding 06:13
5. Uncle Turn it Down 05:13
6. When your Dance (part.II) 04:30
7. Ramon 05:46
******************************
Total playing time: 34:52



Technical info
(IMG:http://metalarea.org/images/spectrogram/2020_Mar/3879a56070b8f5ba5cd6a3f1e6c69d52.png)
Input File: Trip Hill - Psych Wedding - 01 Memoriam.mp3
Channels : 2
Sample Rate : 44100
Precision : 16-bit
Duration : 00:05:10.92 = 13711440 samples = 23318.8 CDDA sectors
File Size : 12.6M
Bit Rate : 323k
Sample Encoding: MPEG audio (layer I, II or III)
Comments :
Title=Memoriam
Artist=Trip Hill
Album=Psych Wedding
Tracknumber=1
Year=2020



Register


Go to the top of the page
  Insert nick Quick quote
+Quote Post
 
Start new topic
Replies (1 - 1)
post Mar 25 2020, 09:12:26
Post #2

Правь статус, ####!111
**************
Group: Металариец
Posts: 45,596
Releases: 703
On Forums: 10 years 9 months
Thanks: 37525 time(s)
Russian Federation


Шикарный релиз без единой слабой песни. Дань 60-м удалась на славу, так сразу и не скажешь, что релиз сего года.
Go to the top of the page
  Insert nick Quick quote
+Quote Post

Reply to this topicStart new topic
1 User(s) are reading this topic (1 Guests and 0 Anonymous Users)
0 Members:

 



- Lo-Fi Version Support form
Copyrights and abuse reports form
Time is now: 29th March 2020 - 04:10:33