Welcome Guest ( Log In | Register )

> Releases Upload / Добавление релизов

Добавить релиз тут / Click here to add release
Рекомендованные обменники / Recommended file shares

> Nordglanz & Yaocuicatl - Revolt Against A Modern World [split] (2019), Black Metal/Neofolk | Black/Folk Pagan Metal/Ambient (D)
post Mar 24 2020, 11:58:14
Post #1

Каждое ваше "Спасибо" помогает мне понять, что я делаю новости не напрасно.
**************
Group: Металариец
Posts: 2,479
Releases: 2187
From: Одесса
On Forums: 11 years 10 months
Thanks: 20342 time(s)
Ukraine


(IMG:http://metalarea.org/images/audiocovers/2020_Mar/acov_tid335244_thumb.jpg)

*Artist: Nordglanz & Yaocuicatl
*Album: Revolt Against A Modern World [split]
*Year: 2019
*Genre: Black Metal, Neofolk | Black/Folk Pagan Metal/Ambient
*Country: Germany (IMG:http://metalarea.org/forum/style_images/flags/Germany.png) | Mexico (IMG:http://metalarea.org/forum/style_images/flags/Mexico.png)
*Format: mp3@CBR320kbps
*Size: 127MB

Tracklist:
Nordglanz:
1.Im Glanze Steh'n 04:46
2.Fackelzug 05:54
3.Fahne zu Fahne 02:46
4.Knights of the Sunwheel 05:40
5.Als die Alten noch Jung waren (Absurd cover) 05:54
Yaocuicatl:
6.Revuelta contra el mundo moderno 06:16
7.Invocando la supremacía antigua 05:41
8.Nacido con orgullo y lealtad 05:28
9.Lucha por la victoria (Warhead cover) 05:14
10.Mi tierra ancestral 06:33
******************************
Total playing time: 54:12

(IMG:http://metalarea.org/images/youtube.png)

Extended info
FLAC RIP


Technical info
(IMG:http://metalarea.org/images/spectrogram/2020_Mar/47f4736dde9ea8b45d4dede00751015c.png)
Input File: 04. Knights Of The Sunwheel.mp3
Channels : 2
Sample Rate : 44100
Precision : 16-bit
Duration : 00:05:40.19 = 15002291 samples = 25514.1 CDDA sectors
File Size : 13.6M
Bit Rate : 320k
Sample Encoding: MPEG audio (layer I, II or III)
Comments :
Title=Knights Of The Sunwheel
Artist=Nordglanz
Album=Revolt Against A Modern World (Split)
Tracknumber=4
Year=2019
Genre=Black Metal, Neofolk



Register


Go to the top of the page
  Insert nick Quick quote
+Quote Post
 
Start new topic
Replies (1 - 1)
post Mar 30 2020, 20:06:50
Post #2

Два Литра
**
Group: Завсегдатай
Posts: 103
Releases: 0
On Forums: 1 month 1 week
Thanks: 61 time(s)
Unknown


Послушал из за Nordglanz и не прогадал, немцы в своем репертуаре, за что их и ценю.
Yaocuicatl в целом неплохо, но как то более "пресно" получилось.
Go to the top of the page
  Insert nick Quick quote
+Quote Post

Reply to this topicStart new topic
1 User(s) are reading this topic (1 Guests and 0 Anonymous Users)
0 Members:

 



- Lo-Fi Version Support form
Copyrights and abuse reports form
Time is now: 3rd April 2020 - 17:31:33