Welcome Guest ( Log In | Register )

> Releases Upload / Добавление релизов

Добавить релиз тут / Click here to add release
Рекомендованные обменники / Recommended file shares

 
Reply to this topicStart new topic
> Omnikinetic - Omnikinetic [demo] (2020), Black/Death Metal
post Mar 24 2020, 13:09:44
Post #1

𝕻𝕬𝕹𝕬𝕮𝕰𝕬
********
Group: Металариец
Posts: 801
Releases: 462
On Forums: 7 years 10 months
Thanks: 7426 time(s)
Unknown


(IMG:http://metalarea.org/images/audiocovers/2020_Mar/acov_tid335246_thumb.jpg)

*Artist: Omnikinetic
*Album: Omnikinetic [demo]
*Year: 2020
*Genre: Black/Death Metal
*Country: United States (IMG:http://metalarea.org/forum/style_images/flags/United%20States.png)
*Format: mp3@CBR320kbps
*Size: 24MB

Tracklist:
1. Absolutakinesis 03:51
2. Chronokinesis 03:37
3. Antikinesis 02:21
******************************
Total playing time: 9:49



Technical info
(IMG:http://metalarea.org/images/spectrogram/2020_Mar/e816acf8c59bba6be21ccca391aaa183.png)
Input File: 03 - Antikinesis.mp3
Channels : 2
Sample Rate : 44100
Precision : 16-bit
Duration : 00:02:21.67 = 6247779 samples = 10625.5 CDDA sectors
File Size : 5.85M
Bit Rate : 330k
Sample Encoding: MPEG audio (layer I, II or III)
Comments :
Title=Antikinesis
Artist=Omnikinetic
Album=Omnikinetic
Tracknumber=3
Year=2020
Genre=Black/Death Metal



Register


Go to the top of the page
  Insert nick Quick quote
+Quote Post

Reply to this topicStart new topic
1 User(s) are reading this topic (1 Guests and 0 Anonymous Users)
0 Members:

 



- Lo-Fi Version Support form
Copyrights and abuse reports form
Time is now: 3rd April 2020 - 18:00:38