Welcome Guest ( Log In | Register )

> Releases Upload / Добавление релизов

Добавить релиз тут / Click here to add release
Рекомендованные обменники / Recommended file shares

> Omnikinetic - Kinesis [ep] (2020), Black/Death Metal
post Mar 24 2020, 13:14:29
Post #1

𝕻𝕬𝕹𝕬𝕮𝕰𝕬
********
Group: Металариец
Posts: 801
Releases: 462
On Forums: 7 years 10 months
Thanks: 7428 time(s)
Unknown


(IMG:http://metalarea.org/images/audiocovers/2020_Mar/acov_tid335247_thumb.jpg)

*Artist: Omnikinetic
*Album: Kinesis [ep]
*Year: 2020
*Genre: Black/Death Metal
*Country: United States (IMG:http://metalarea.org/forum/style_images/flags/United%20States.png)
*Format: mp3@CBR320kbps
*Size: 48MB

Tracklist:
1. The Wolves Ascend 03:51
2. Leading The Pack 02:50
3. Silently I'll Suffer, Patiently I'll Wait 04:00
4. Raised-Leg Urination 04:06
5. Absolutakinesis (In Control) 03:51
6. Chronokinesis (Time Control) 03:37
******************************
Total playing time: 22:15



Extended info
- 6 panel j-card printed in CMYK 4/4 on 170g coated paper.
- Plastic shell with on-body print.
- High quality case (norelco).
- Limited to 50 handnumbered copies.


Technical info
(IMG:http://metalarea.org/images/spectrogram/2020_Mar/6e1cd924a2397f9f9b5800ff5f474506.png)
Input File: 02 - Leading The Pack.mp3
Channels : 2
Sample Rate : 44100
Precision : 16-bit
Duration : 00:02:50.45 = 7516757 samples = 12783.6 CDDA sectors
File Size : 6.35M
Bit Rate : 298k
Sample Encoding: MPEG audio (layer I, II or III)
Comments :
Title=Leading The Pack
Artist=Omnikinetic
Album=Kinesis
Tracknumber=2
Year=2020
Genre=Black/Death Metal



Register


Go to the top of the page
  Insert nick Quick quote
+Quote Post
 
Start new topic
Replies (1 - 3)
post Mar 25 2020, 07:41:51
Post #2

The Angel Of Death
**************
Group: Металариец
Posts: 5,357
Releases: 48
From: Луганск, 13 регион
On Forums: 14 years 4 months
Thanks: 1698 time(s)
Papua New Guinea


ЦИТАТА(Panacea @ 24th March 2020 - 15:14:29) *
Extended info
- 6 panel j-card printed in CMYK 4/4 on 170g coated paper.
- Plastic shell with on-body print.
- High quality case (norelco)

а к чему все эти подробности?


Thanks:
Go to the top of the page
  Insert nick Quick quote
+Quote Post
post Mar 26 2020, 08:59:56
Post #3

Правь статус, ####!111
**************
Group: Металариец
Posts: 45,740
Releases: 705
On Forums: 10 years 10 months
Thanks: 37728 time(s)
Russian Federation


ЦИТАТА(Alexis The Best @ Mar 25 2020, 10:41:51) *
а к чему все эти подробности?


Шоб ты спросил (IMG:style_emoticons/default/1488.gif)
Go to the top of the page
  Insert nick Quick quote
+Quote Post
post Mar 27 2020, 07:18:54
Post #4

The Angel Of Death
**************
Group: Металариец
Posts: 5,357
Releases: 48
From: Луганск, 13 регион
On Forums: 14 years 4 months
Thanks: 1698 time(s)
Papua New Guinea


ЦИТАТА(vosmidesijatye @ 26th March 2020 - 10:59:56) *
Шоб ты спросил (IMG:style_emoticons/default/1488.gif)

(IMG:style_emoticons/default/crazy.gif) (IMG:style_emoticons/default/14.gif)
Go to the top of the page
  Insert nick Quick quote
+Quote Post

Reply to this topicStart new topic
1 User(s) are reading this topic (1 Guests and 0 Anonymous Users)
0 Members:

 



- Lo-Fi Version Support form
Copyrights and abuse reports form
Time is now: 3rd April 2020 - 19:01:19