Welcome Guest ( Log In | Register )

> И неформату есть предел.

Рэп/хип-хоп/шансон/поп удаляются. Для них есть свои порталы.

> Hibiscus Biscuit - Reflection Of Mine (2020), 70´s Psychedelic/Progressive Rock/Jazz
post Mar 24 2020, 13:27:34
Post #1

Правь статус, ####!111
**************
Group: Металариец
Posts: 45,596
Releases: 703
On Forums: 10 years 9 months
Thanks: 37525 time(s)
Russian Federation


(IMG:http://metalarea.org/images/audiocovers/2020_Mar/acov_tid335248_thumb.jpg)

*Artist: Hibiscus Biscuit
*Album: Reflection Of Mine
*Year: 2020
*Genre: 70´s Psychedelic/Progressive Rock/Jazz
*Country: Australia (IMG:http://metalarea.org/forum/style_images/flags/Australia.png)
*Format: mp3@CBR320kbps
*Size: 85MB

Tracklist:
1. Wake Me Up 04:47
2. Sunflower Fields 06:16
3. Don't Mind My Mind 04:33
4. Velvet Sundays 05:23
5. So Long 03:54
6. Abelha de Agua 02:43
7. Keep on Rising 03:33
8. Orange Trees 05:53
******************************
Total playing time: 37:02



Technical info
(IMG:http://metalarea.org/images/spectrogram/2020_Mar/2916c4bb0cffacf757381729ba9721d7.png)
Input File: 01 Wake Me Up.mp3
Channels : 2
Sample Rate : 44100
Precision : 16-bit
Duration : 00:04:47.09 = 12660801 samples = 21532 CDDA sectors
File Size : 11.5M
Bit Rate : 320k
Sample Encoding: MPEG audio (layer I, II or III)
Comments :
Title=Wake Me Up
Artist=Hibiscus Biscuit
Album=Reflection of Mine
Tracknumber=1
Year=2020



Register


Go to the top of the page
  Insert nick Quick quote
+Quote Post
 
Start new topic
Replies (1 - 1)
post Mar 25 2020, 09:13:24
Post #2

Правь статус, ####!111
**************
Group: Металариец
Posts: 45,596
Releases: 703
On Forums: 10 years 9 months
Thanks: 37525 time(s)
Russian Federation


Красивейший, волшебной красоты альбом.
Go to the top of the page
  Insert nick Quick quote
+Quote Post

Reply to this topicStart new topic
1 User(s) are reading this topic (1 Guests and 0 Anonymous Users)
0 Members:

 



- Lo-Fi Version Support form
Copyrights and abuse reports form
Time is now: 29th March 2020 - 03:44:47