Welcome Guest ( Log In | Register )

> Releases Upload / Добавление релизов

Добавить релиз тут / Click here to add release
Рекомендованные обменники / Recommended file shares

> Iskalde Morket - Metaphysics Of Mass Murder (2020), Progressive/Technical Black Metal (D4)
post Mar 24 2020, 13:33:34
Post #1

𝕻𝕬𝕹𝕬𝕮𝕰𝕬
********
Group: Металариец
Posts: 801
Releases: 462
On Forums: 7 years 10 months
Thanks: 7429 time(s)
Unknown


(IMG:http://metalarea.org/images/audiocovers/2020_Mar/acov_tid335249_thumb.jpg)

*Artist: Iskalde Morket
*Album: Metaphysics Of Mass Murder
*Year: 2020
*Genre: Progressive/Technical Black Metal
*Country: United Kingdom (IMG:http://metalarea.org/forum/style_images/flags/United%20Kingdom.png)
*Format: mp3@CBR320kbps
*Size: 71MB

Tracklist:
1. Escalera De La Muerte 05:25
2. Metaphysics Of Mass Murder 07:11
3. North Walsham Misanthropia 03:01
4. Introverts Doedskvad 08:06
5. Apotheosis 07:36
******************************
Total playing time: 31:19



Technical info
(IMG:http://metalarea.org/images/spectrogram/2020_Mar/3f1fae57d215e0869631fcb983fcb7b2.png)
Input File: 03 - North Walsham Misanthropia.mp3
Channels : 2
Sample Rate : 44100
Precision : 16-bit
Duration : 00:03:01.28 = 7994272 samples = 13595.7 CDDA sectors
File Size : 7.33M
Bit Rate : 323k
Sample Encoding: MPEG audio (layer I, II or III)
Comments :
Title=North Walsham Misanthropia
Artist=Iskalde Morket
Album=Metaphysics Of Mass Murder
Tracknumber=3
Year=2020
Genre=Progressive/Experimental Black Metal



Register


Go to the top of the page
  Insert nick Quick quote
+Quote Post
 
Start new topic
Replies (1 - 2)
post Mar 25 2020, 08:21:01
Post #2

Литр
*
Group: Подсевший
Posts: 86
Releases: 0
On Forums: 2 years 11 months
Thanks: 28 time(s)
Russian Federation


Это называется даайте представим, что было бы, если Роберт Фрипп решил поиграть блэк
Go to the top of the page
  Insert nick Quick quote
+Quote Post
post Mar 29 2020, 13:06:55
Post #3

Мегаманьяк
***********
Group: Металариец
Posts: 1,569
Releases: 24
From: Spain
On Forums: 12 years 7 months
Thanks: 1246 time(s)
Spain


Register
Go to the top of the page
  Insert nick Quick quote
+Quote Post

Reply to this topicStart new topic
1 User(s) are reading this topic (1 Guests and 0 Anonymous Users)
0 Members:

 



- Lo-Fi Version Support form
Copyrights and abuse reports form
Time is now: 3rd April 2020 - 19:18:06