Welcome Guest ( Log In | Register )

> Releases Upload / Добавление релизов

Добавить релиз тут / Click here to add release
Рекомендованные обменники / Recommended file shares

> The Malice - Legions Of The Dawn (2020), Technical Death Metal (D5)
post Mar 24 2020, 16:07:17
Post #1

Правь статус, ####!111
**************
Group: Металариец
Posts: 21,258
Releases: 14534
From: Г.Харьков
On Forums: 7 years 10 months
Thanks: 259293 time(s)
Unknown


(IMG:http://metalarea.org/images/audiocovers/2020_Mar/acov_tid335253_thumb.jpg)

*Artist: The Malice
*Album: Legions Of The Dawn
*Year: 2020
*Genre: Technical Death Metal
*Country: International (IMG:http://metalarea.org/forum/style_images/flags/International.png)
*Format: mp3@CBR320kbps
*Size: 77MB

Tracklist:
01. The Heirs ov Sekhmet
02. Witchery
03. Purson
04. Aeon ov Horus
05. Paimon
06. The Ophidian
07. The Son ov Midian
08. Possessed
09. Bebal
******************************
Total playing time: 32:59




Extended info
Sweden / Germany
Nur-Adad Guitars, Bass, Drums (2014-present)
See also: ex-Sanctifica, ex-Crimson Moonlight, ex-Oblivion, ex-Pantokrator
Samsu-Iluna Vocals (2014-present)
See also: Goblins Blade, My Darkest Hate, Sacrificium, The Buried, Thy Bleeding Skies, ex-Mighty D., ex-Disinfect






Technical info
(IMG:http://metalarea.org/images/spectrogram/2020_Mar/c33280a72942d32e2ea807470fedce4c.png)
Input File: 04. Aeon ov Horus.mp3
Channels : 2
Sample Rate : 44100
Precision : 16-bit
Duration : 00:04:08.60 = 10963172 samples = 18644.9 CDDA sectors
File Size : 10.0M
Bit Rate : 323k
Sample Encoding: MPEG audio (layer I, II or III)
Comments :
Title=Aeon ov Horus
Artist=The Malice
Album=Legions of the Dawn
Tracknumber=4
Year=2020



Register


Go to the top of the page
  Insert nick Quick quote
+Quote Post
 
Start new topic
Replies (1 - 1)
post Mar 26 2020, 19:39:04
Post #2

Full-of-Hate
**************
Group: Металариец
Posts: 3,463
Releases: 0
From: Moscow
On Forums: 10 years 9 months
Thanks: 3158 time(s)
Russian Federation


Техникала здесь нет и рядом, скорее редкая демонстрация арсенала от людей, которые достаточно давно в мире Death Metal и что-то в нем освоили, но без звезд с неба. В целом, это относительно бестолковый интернациональный джем-проект, зарисовки которого наскучивают на середине. В саунде и подаче материала достаточно много от шведской школы, в которую изредка врывается шапито от Aborted/Benighted, но не вытягивает альбом из трясины невыразительных идей. За саунд альбом в лучшем случае может получить тройку, а так нафиг не нужен...


Thanks:
Go to the top of the page
  Insert nick Quick quote
+Quote Post

Reply to this topicStart new topic
1 User(s) are reading this topic (1 Guests and 0 Anonymous Users)
0 Members:

 



- Lo-Fi Version Support form
Copyrights and abuse reports form
Time is now: 3rd April 2020 - 18:56:50