Welcome Guest ( Log In | Register )

> И неформату есть предел.

Рэп/хип-хоп/шансон/поп удаляются. Для них есть свои порталы.

 
Reply to this topicStart new topic
> Nytt Land - Cvlt (2020), Nordic Folk/Dark Ambient (D5)
post Mar 24 2020, 16:07:27
Post #1

ΕΥΜΕΝΙΔΕΣ
**************
Group: Металариец
Posts: 2,277
Releases: 27
From: Kænugarður
On Forums: 13 years 1 month
Thanks: 3140 time(s)
Ukraine


(IMG:https://metalarea.org/images/audiocovers/2020_Mar/acov_tid335254_thumb.jpg)

*Artist: Nytt Land
*Album: Cvlt
*Year: 2020
*Genre: Nordic Folk/Dark Ambient
*Country: Russian Federation (IMG:https://metalarea.org/forum/style_images/flags/Russian%20Federation.png)
*Format: mp3@CBR320kbps
*Size: 126MB

Tracklist:
1. Valhalla Rising 07:00
2. Song of the Kazym Goddess 06:27 video
3. Rígsþula 04:15
4. Ar Hotan Imi (feat. Tuomas Rounakari) 05:09
5. Seven Spirits in White Coats 03:46
6. Pusel ov Aki’s song 05:15
7. Niðavellir 04:43
8. Sólarljóð 05:25
9. Sigrdriva spell 04:17
10. Sortunut ääni (feat. Jonne Järvelä) 04:15
11. Hanum 01:53
12. Song of the Goddess Keeper (feat. Maria “Scream” Arkhipova)
******************************
Total playing time: 52:25

(IMG:https://metalarea.org/images/youtube.png)

Technical info
(IMG:https://metalarea.org/images/spectrogram/2020_Mar/5d5d29a8ae0dab378b0cc32b6b5a94ed.png)
Input File: 02 - Song of the Kazym Goddess.mp3
Channels : 2
Sample Rate : 44100
Precision : 16-bit
Duration : 00:06:27.31 = 17080459 samples = 29048.4 CDDA sectors
File Size : 15.5M
Bit Rate : 320k
Sample Encoding: MPEG audio (layer I, II or III)
Comments :
Title=Song of the Kazym Goddess
Artist=Nytt Land
Album=Cvlt
Tracknumber=02
Year=2020
Genre=Nordic Folk/Dark Ambient



Register


Go to the top of the page
  Insert nick Quick quote
+Quote Post

Reply to this topicStart new topic
1 User(s) are reading this topic (1 Guests and 0 Anonymous Users)
0 Members:

 



- Lo-Fi Version Support form
Copyrights and abuse reports form
Time is now: 3rd April 2020 - 18:12:46