Welcome Guest ( Log In | Register )

> Releases Upload / Добавление релизов

Добавить релиз тут / Click here to add release
Рекомендованные обменники / Recommended file shares

> Absolva - Side By Side (2020), Heavy Metal
post Mar 24 2020, 16:21:08
Post #1

Правь статус, ####!111
**************
Group: Металариец
Posts: 21,258
Releases: 14534
From: Г.Харьков
On Forums: 7 years 10 months
Thanks: 259304 time(s)
Unknown


(IMG:http://metalarea.org/images/audiocovers/2020_Mar/acov_tid335255_thumb.jpg)

*Artist: Absolva
*Album: Side By Side
*Year: 2020
*Genre: Heavy Metal
*Country: United Kingdom (IMG:http://metalarea.org/forum/style_images/flags/United%20Kingdom.png)
*Format: mp3@CBR320kbps
*Size: 139MB

Tracklist:
1. Advocate Your Fate
2. Burning Star
3. The Sky's Your Limit
4. Side by Side
5. Living a Lie
6. Legion
7. Eternal Soul
8. End of Days
9. Heart Let's Go
10. From This World
11. 2 Minutes to Midnight (Iron Maiden cover)
12. Heaven and Hell (Black Sabbath cover)
******************************
Total playing time: 1:00:23



Extended info
Karl Schramm - Bass (Blaze Bayley)
Martin McNee - Drums (Blaze Bayley, Fury UK)
Luke Appleton - Guitars, Vocals (Iced Earth, Blaze Bayley, Fury UK)
Chris Appleton - Lead Vocals, Guitars (Chris Appleton, Blaze Bayley, Fury UK)


Technical info
(IMG:http://metalarea.org/images/spectrogram/2020_Mar/77e3450e44165f31d266a488efe59733.png)
Input File: 04 Side by Side.mp3
Channels : 2
Sample Rate : 44100
Precision : 16-bit
Duration : 00:04:39.53 = 12327053 samples = 20964.4 CDDA sectors
File Size : 11.2M
Bit Rate : 320k
Sample Encoding: MPEG audio (layer I, II or III)
Comments :
Title=Side By Side
Artist=Absolva
Album=Side By Side
Tracknumber=4/12/12
Year=2020
Genre=Metal
Discnumber=1/1



Register


Go to the top of the page
  Insert nick Quick quote
+Quote Post
 
Start new topic
Replies (1 - 1)
post Mar 25 2020, 03:55:16
Post #2

Правь статус, ####!111
**************
Group: Металариец
Posts: 21,258
Releases: 14534
From: Г.Харьков
On Forums: 7 years 10 months
Thanks: 259304 time(s)
Unknown


Cloud Mail 320
Register
Go to the top of the page
  Insert nick Quick quote
+Quote Post

Reply to this topicStart new topic
1 User(s) are reading this topic (1 Guests and 0 Anonymous Users)
0 Members:

 



- Lo-Fi Version Support form
Copyrights and abuse reports form
Time is now: 3rd April 2020 - 19:13:38