Welcome Guest ( Log In | Register )

 
Reply to this topicStart new topic
> Zgard - Верховина Чекає [single] (2019), Pagan Black Metal (D)
post Mar 24 2020, 17:32:13
Post #1

Каждое ваше "Спасибо" помогает мне понять, что я делаю новости не напрасно.
**************
Group: Металариец
Posts: 2,479
Releases: 2187
From: Одесса
On Forums: 11 years 10 months
Thanks: 20342 time(s)
Ukraine


(IMG:http://metalarea.org/images/audiocovers/2020_Mar/acov_tid335256_thumb.jpg)

*Artist: Zgard
*Album: Верховина Чекає [single]
*Year: 2019
*Genre: Pagan Black Metal
*Country: Ukraine (IMG:http://metalarea.org/forum/style_images/flags/Ukraine.png)
*Format: mp3@CBR320kbps
*Size: 19MB

Tracklist:
1. Верховина чекає 07:56
******************************
Total playing time: 7:56



Extended info
В ЛОУ

Line - up:
Yaromisl - All instruments (Говерла)

Guest/Session:
Dusk - Vocals (Endless Battle, ex-Stryvigor, ex-Vermis Mysteriis (live))
Lycane - Drums (Paganland, Atra Mors, Chorea, Colotyphus, Polynove Pole, ex-Aryadeva, ex-Nahemoth, ex-Neksus, ex-Nocturnal Amentia (live), ex-Torrence Conscientium (live))

(IMG:https://www.metal-archives.com/images/3/5/4/0/3540331271_photo.jpg?4229)


Technical info
(IMG:http://metalarea.org/images/spectrogram/2020_Mar/4eae4fa0a125d048ed99f88c05a88e78.png)
Input File: 01 Верховина Чекає.mp3
Channels : 2
Sample Rate : 44100
Precision : 16-bit
Duration : 00:07:56.16 = 20998788 samples = 35712.2 CDDA sectors
File Size : 19.0M
Bit Rate : 320k
Sample Encoding: MPEG audio (layer I, II or III)
Comments :
Title=Верховина Чекає
Artist=Zgard
Album=Верховина Чекає (Single)
Tracknumber=01
Year=2019
Genre=Pagan Black Metal



Register


Go to the top of the page
  Insert nick Quick quote
+Quote Post

Reply to this topicStart new topic
1 User(s) are reading this topic (1 Guests and 0 Anonymous Users)
0 Members:

 



- Lo-Fi Version Support form
Copyrights and abuse reports form
Time is now: 3rd April 2020 - 18:21:44