Welcome Guest ( Log In | Register )

> Releases Upload / Добавление релизов

Добавить релиз тут / Click here to add release
Рекомендованные обменники / Recommended file shares

 
Reply to this topicStart new topic
> Inprobus - Retribution [demo] (2020), Thrash/Death Metal
post Mar 24 2020, 18:19:34
Post #1

Правь статус, ####!111
**************
Group: Металариец
Posts: 21,257
Releases: 14534
From: Г.Харьков
On Forums: 7 years 10 months
Thanks: 259260 time(s)
Unknown


(IMG:http://metalarea.org/images/audiocovers/2020_Mar/acov_tid335257_thumb.jpg)

*Artist: Inprobus
*Album: Retribution [demo]
*Year: 2020
*Genre: Thrash/Death Metal
*Country: Slovakia (IMG:http://metalarea.org/forum/style_images/flags/Slovakia.png)
*Format: mp3@CBR320kbps
*Size: 71MB

Tracklist:
1. Retribution 05:19
2. Sucker 05:17
3. Torment & Sorrow 05:34
4. Just Push Me More 04:39
5. History Replay 05:44
6. Possessed 04:08
******************************
Total playing time: 30:41



Preview 3

Extended info
Roman Macalák - bass, vocal
Richard Német - rhytm guitar
Vojtech Német - lead guitar
Szilárd Kurdi - drums


Technical info
(IMG:http://metalarea.org/images/spectrogram/2020_Mar/c132219fdc441189250e78915657c61f.png)
Input File: 03 - Torment & Sorrow.mp3
Channels : 2
Sample Rate : 44100
Precision : 16-bit
Duration : 00:05:34.36 = 14745364 samples = 25077.1 CDDA sectors
File Size : 13.5M
Bit Rate : 323k
Sample Encoding: MPEG audio (layer I, II or III)
Comments :
Title=Torment & Sorrow
Artist=Inprobus
Album=Retribution
Tracknumber=3
Year=2020-03-23
Genre=Rock
Discnumber=1



Register


Go to the top of the page
  Insert nick Quick quote
+Quote Post

Reply to this topicStart new topic
1 User(s) are reading this topic (1 Guests and 0 Anonymous Users)
0 Members:

 



- Lo-Fi Version Support form
Copyrights and abuse reports form
Time is now: 3rd April 2020 - 16:49:30