Welcome Guest ( Log In | Register )

 
Reply to this topicStart new topic
> Zmey Gorynich - Дед Мороз [single] (2019), Folk Metal/Deathcore (D5)
post Mar 24 2020, 18:21:12
Post #1

Каждое ваше "Спасибо" помогает мне понять, что я делаю новости не напрасно.
**************
Group: Металариец
Posts: 2,479
Releases: 2187
From: Одесса
On Forums: 11 years 10 months
Thanks: 20342 time(s)
Ukraine


(IMG:http://metalarea.org/images/audiocovers/2020_Mar/acov_tid335258_thumb.jpg)

*Artist: Zmey Gorynich
*Album: Дед Мороз [single]
*Year: 2019
*Genre: Folk Metal/Deathcore
*Country: Russian Federation (IMG:http://metalarea.org/forum/style_images/flags/Russian%20Federation.png)
*Format: mp3@CBR320kbps
*Size: 15MB

Tracklist:
1. Дед Мороз 03:34
2. Дед Мороз 03:18 instrumental
******************************
Total playing time: 6:52



Extended info
В ЛОУ

Line - up:

Gvozd - Bass (Kartikeya, Above the Earth)
Mityay - Vocals (Arcanorum Astrum, Grailight, Lunae Ortus, Nimphaion, Skylord, Бѣсъ, ex-Arcane Grail, Chatalhüyük, ex-Armaga, ex-Atra Mustum, ex-Изморозь, ex-Откровения Дождя, ex-Emerald Night (live), ex-СатанаКозёл (live))
Rys - Vocals (Рарогъ, ex-Ориана, Sky Too High, Smorodina, ex-Grailight, ex-Imperial Age, ex-Morbid Violence, ex-Valley of the Moon, ex-Delirium, ex-Vesper Led)
Nehay - Drums (Crimson Blue, Sky Too High, VI-X, ex-Sword Coast (live))
Malafey - Guitars (Smothered Bowels, Concrete, ex-Fire Walk With Me, ex-Lost Memories, ex-Идущие к Солнцу)
Paphnuty - Guitars (Spaint (live), ex-Terror Inside)

(IMG:https://www.metal-archives.com/images/3/5/4/0/3540419379_photo.jpg?4159)


Technical info
(IMG:http://metalarea.org/images/spectrogram/2020_Mar/9d788ce576997e80a4ee8480906a1b0a.png)
Input File: 01 - Дед Мороз.mp3
Channels : 2
Sample Rate : 44100
Precision : 16-bit
Duration : 00:03:34.57 = 9462581 samples = 16092.8 CDDA sectors
File Size : 8.58M
Bit Rate : 320k
Sample Encoding: MPEG audio (layer I, II or III)
Comments :
Title=Дед Мороз
Artist=Zmey Gorynich
Album=Дед Мороз (Single)
Tracknumber=01
Year=2019
Genre=Folk Metal/Deathcore



Register


Go to the top of the page
  Insert nick Quick quote
+Quote Post

Reply to this topicStart new topic
1 User(s) are reading this topic (1 Guests and 0 Anonymous Users)
0 Members:

 



- Lo-Fi Version Support form
Copyrights and abuse reports form
Time is now: 3rd April 2020 - 18:27:35