Welcome Guest ( Log In | Register )

> Releases Upload / Добавление релизов

Добавить релиз тут / Click here to add release
Рекомендованные обменники / Recommended file shares

 
Reply to this topicStart new topic
> Ageless Summoning - Demo Mmxviii [demo] (2018), Death Metal
post Mar 24 2020, 18:21:21
Post #1

𝕻𝕬𝕹𝕬𝕮𝕰𝕬
********
Group: Металариец
Posts: 801
Releases: 462
On Forums: 7 years 10 months
Thanks: 7424 time(s)
Unknown


(IMG:http://metalarea.org/images/audiocovers/2020_Mar/acov_tid335259_thumb.jpg)

*Artist: Ageless Summoning
*Album: Demo Mmxviii [demo]
*Year: 2018
*Genre: Death Metal
*Country: United Kingdom (IMG:http://metalarea.org/forum/style_images/flags/United%20Kingdom.png)
*Format: mp3@CBR320kbps
*Size: 28MB

Tracklist:
1. Usurper Of The Void 05:19
2. Salvation In Ash 06:31
******************************
Total playing time: 11:50




Extended info
Crown And Throne Ltd.
Limited edition cassette of 100 copies.


Technical info
(IMG:http://metalarea.org/images/spectrogram/2020_Mar/df39d77d66fb6b0f5cc8b0a468714302.png)
Input File: 01 - Usurper Of The Void.mp3
Channels : 2
Sample Rate : 44100
Precision : 16-bit
Duration : 00:05:19.92 = 14108296 samples = 23993.7 CDDA sectors
File Size : 12.9M
Bit Rate : 322k
Sample Encoding: MPEG audio (layer I, II or III)
Comments :
Title=Usurper Of The Void
Artist=Ageless Summoning
Album=Demo MMXVIII
Tracknumber=1
Year=2018
Genre=Death Metal



Register


Go to the top of the page
  Insert nick Quick quote
+Quote Post

Reply to this topicStart new topic
1 User(s) are reading this topic (1 Guests and 0 Anonymous Users)
0 Members:

 



- Lo-Fi Version Support form
Copyrights and abuse reports form
Time is now: 3rd April 2020 - 17:11:29