Welcome Guest ( Log In | Register )

> Releases Upload / Добавление релизов

Добавить релиз тут / Click here to add release
Рекомендованные обменники / Recommended file shares

> Membaris - Misanthrosophie (2020), Black Metal (D)
post Mar 24 2020, 18:27:37
Post #1

Правь статус, ####!111
**************
Group: Металариец
Posts: 4,282
Releases: 1191
From: Brazil
On Forums: 8 years 2 months
Thanks: 44298 time(s)
Brazil


(IMG:https://metalarea.org/images/audiocovers/2020_Mar/acov_tid335260_thumb.jpg)

*Artist: Membaris
*Album: Misanthrosophie
*Year: 2020
*Genre: Black Metal
*Country: Germany (IMG:https://metalarea.org/forum/style_images/flags/Germany.png)
*Format: mp3@CBR320kbps
*Size: 123MB

Tracklist:
1. Architektur fern Struktur 05:46
2. Nebel Haras 06:07
3. My Path of Stars 05:51
4. Constant Companion 09:00
5. The Only Reason to Stay 03:12
6. Imaginations Through the Horn-Crowned Skull 04:54
7. Pulsar 04:27
8. Misanthrosophie 05:50
9. Aus Tiefen empor... 08:20
******************************
Total playing time: 53:27



Extended info
W.T.C. Productions sets March 24th as the international release date for Membaris' long-awaited fifth album, Misanthrosophie.

Forming in the dark, fateful days of 1999, Membaris have long been a lingering force within Germany's oft-overlooked black metal underground. From the band's very first demo in 2002 onward, Membaris have kept their feet firmly rooted in black metal's foundational second wave, but always with an eye to expand upon that noble firmament. Reverence is key, as is passion, and the seamless, unselfconscious combination of both has become a hallmark of Membaris.

Alas, it's been eight long years since the band's last album, 2012's Entartet, but Membaris arrive refreshed and with their strongest full-length to date in Misanthrosophie. With founding members Obscurus and Kraal still at the helm, the duo here unleash a torrent of Technicolor black metal majesty with Misanthrosophie. Each of these nine tracks wends and winds through a dazzling display of contours and constructs, encompassing blistering intensity and majestic melody alike, and often detouring into plaintive (and ever-poignant) acoustic territory with alarming ease, including some literally stunning solos courtesy of Stefan Hofmann. Across its vast 54 minutes do Membaris take the listener on a breathtaking journey into the soul's darkest recesses - as well as, it must be said, surprisingly grand heights - folding perceptions, origami-like, of what pure 'n' proud BLACK METAL can be. And that journey becomes an especially emotional one, as the duo's songwriting simply bleeds blood both black and red, human and inhuman(e), their spectrum of experience transcending the usually strictured norms of the artform. But, veterans that they are, Membaris equally understand black metal's original unorthodoxy, and hereby abide by that just as fully; the listener is thus richer for the duo's daring ways.

Completing the totality, Misanthrosophie was engineered by TT and is graced with stark 'n' austere cover art courtesy of Karmazid. The past is alive, and it bleeds into the future with Membaris' Misanthrosophie.


Technical info
(IMG:https://metalarea.org/images/spectrogram/2020_Mar/6a4325f446f2ff58009725262a988403.png)
Input File: 01 Architektur fern Struktur.mp3
Channels : 2
Sample Rate : 44100
Precision : 16-bit
Duration : 00:05:46.09 = 15262525 samples = 25956.7 CDDA sectors
File Size : 13.8M
Bit Rate : 320k
Sample Encoding: MPEG audio (layer I, II or III)
Comments :
Title=Architektur fern Struktur
Artist=Membaris
Album=Misanthrosophie
Tracknumber=1
Year=2020



Register


Go to the top of the page
  Insert nick Quick quote
+Quote Post
 
Start new topic
Replies (1 - 1)
post Mar 25 2020, 06:38:07
Post #2
BAN
Banned till
Apr 7 2020, 21:36:55



Петушня.
По пресс-релизу всё ясно.


Thanks:
Go to the top of the page
  Insert nick Quick quote
+Quote Post

Reply to this topicStart new topic
1 User(s) are reading this topic (1 Guests and 0 Anonymous Users)
0 Members:

 



- Lo-Fi Version Support form
Copyrights and abuse reports form
Time is now: 3rd April 2020 - 18:08:01