Welcome Guest ( Log In | Register )

> Releases Upload / Добавление релизов

Добавить релиз тут / Click here to add release
Рекомендованные обменники / Recommended file shares

> Thy Dying Light - Thy Dying Light (2020), Black Metal (D6)
post Mar 24 2020, 18:39:38
Post #1

Правь статус, ####!111
**************
Group: Металариец
Posts: 4,282
Releases: 1191
From: Brazil
On Forums: 8 years 2 months
Thanks: 44299 time(s)
Brazil


(IMG:https://metalarea.org/images/audiocovers/2020_Mar/acov_tid335261_thumb.jpg)

*Artist: Thy Dying Light
*Album: Thy Dying Light
*Year: 2020
*Genre: Black Metal
*Country: United Kingdom (IMG:https://metalarea.org/forum/style_images/flags/United%20Kingdom.png)
*Format: mp3@CBR320kbps
*Size: 102MB

Tracklist:
1. Under the Horns 02:09
2. Cold In Death 03:59
3. Impaler 03:32
4. Black Death 03:59
5. The Rise of Evil 02:28
6. Ritual Altar 05:57
7. Fist of Satan 04:26
8. Temple of Flesh 05:24
9. Thy Dying Light 06:35
10. Death Knell 02:11
11. In the Shadows (Nefarious Dusk cover) 03:06
******************************
Total playing time: 43:46

(IMG:https://metalarea.org/images/youtube.png)

Extended info
Purity Through Fire

Worship Tapes


Technical info
(IMG:https://metalarea.org/images/spectrogram/2020_Mar/05f823c372312fef36354248757c4a08.png)
Input File: 01 Under the Horns.mp3
Channels : 2
Sample Rate : 44100
Precision : 16-bit
Duration : 00:02:08.06 = 5647402 samples = 9604.43 CDDA sectors
File Size : 5.12M
Bit Rate : 320k
Sample Encoding: MPEG audio (layer I, II or III)
Comments :
Title=Under the Horns
Artist=Thy Dying Light
Album=Thy Dying Light
Tracknumber=1
Year=2020



Register


Go to the top of the page
  Insert nick Quick quote
+Quote Post
 
Start new topic
Replies (1 - 6)
post Mar 25 2020, 18:01:11
Post #2

Четыре Литра
****
Group: Металариец
Posts: 326
Releases: 20
From: France
On Forums: 10 years 8 months
Thanks: 609 time(s)
France


One day maybe he'll release an album with only new songs (IMG:style_emoticons/default/smile4.gif)


Thanks:
(1) Occultas,
Go to the top of the page
  Insert nick Quick quote
+Quote Post
post Mar 25 2020, 20:04:40
Post #3


**************
Group: Металариец
Posts: 2,235
Releases: 14
From: Казань
On Forums: 10 years 6 months
Thanks: 3004 time(s)
Russian Federation


Хрень
Go to the top of the page
  Insert nick Quick quote
+Quote Post
post Mar 26 2020, 16:20:14
Post #4

Русь Понад Усе!
**************
Group: Металариец
Posts: 4,260
Releases: 15
From: Украина
On Forums: 12 years 7 months
Thanks: 1687 time(s)
Ukraine


Ну не знаю превью такое сырое и ничего себе... Сейчас заценим весь альбом (IMG:style_emoticons/default/smile1.gif)
Go to the top of the page
  Insert nick Quick quote
+Quote Post
post Mar 26 2020, 16:26:56
Post #5
BAN
Banned till
Apr 7 2020, 21:36:55



Чушь.


Thanks:
Go to the top of the page
  Insert nick Quick quote
+Quote Post
post Mar 28 2020, 07:28:11
Post #6

Девять Литров
*********
Group: Металариец
Posts: 908
Releases: 0
From: Новосибирск
On Forums: 10 years 7 months
Thanks: 248 time(s)
Russian Federation


У англичашек блэк-метал вечно какой-то [мат->бан]ский получается. Страна такая, что ли? (IMG:style_emoticons/default/smile3.gif)
Go to the top of the page
  Insert nick Quick quote
+Quote Post
post Mar 30 2020, 19:57:22
Post #7

Два Литра
**
Group: Завсегдатай
Posts: 103
Releases: 0
On Forums: 1 month 1 week
Thanks: 61 time(s)
Unknown


Вроде бы неплохо, но получилось средне. Второй раз вряд ли захочется слушать
Go to the top of the page
  Insert nick Quick quote
+Quote Post

Reply to this topicStart new topic
1 User(s) are reading this topic (1 Guests and 0 Anonymous Users)
0 Members:

 



- Lo-Fi Version Support form
Copyrights and abuse reports form
Time is now: 3rd April 2020 - 19:08:39