Welcome Guest ( Log In | Register )

> Releases Upload / Добавление релизов

Добавить релиз тут / Click here to add release
Рекомендованные обменники / Recommended file shares

> Dionysian Rites - Kriegsanleihe [demo] (2020), Doom/Black/Death Metal
post Mar 24 2020, 18:47:31
Post #1

𝕻𝕬𝕹𝕬𝕮𝕰𝕬
********
Group: Металариец
Posts: 801
Releases: 462
On Forums: 7 years 10 months
Thanks: 7426 time(s)
Unknown


(IMG:http://metalarea.org/images/audiocovers/2020_Mar/acov_tid335262_thumb.jpg)

*Artist: Dionysian Rites
*Album: Kriegsanleihe [demo]
*Year: 2020
*Genre: Doom/Black/Death Metal
*Country: International (IMG:http://metalarea.org/forum/style_images/flags/International.png)
*Format: mp3@CBR320kbps
*Size: 29MB

Tracklist:
1. Cerebral Poison 04:17
2. War On Angels 03:03
3. Slaves Of Divinity 05:13
******************************
Total playing time: 12:33



Extended info
Limited to 60 copies.
4 panel j card including lyrics.
Includes logo stickers.


Technical info
(IMG:http://metalarea.org/images/spectrogram/2020_Mar/cd0a59671d71496108de260ecb6055b0.png)
Input File: 02 - War On Angels.mp3
Channels : 2
Sample Rate : 44100
Precision : 16-bit
Duration : 00:03:03.84 = 8107212 samples = 13787.8 CDDA sectors
File Size : 7.44M
Bit Rate : 324k
Sample Encoding: MPEG audio (layer I, II or III)
Comments :
Title=War On Angels
Artist=Dionysian Rites
Album=Kriegsanleihe
Tracknumber=2/3
Year=2020
Genre=Doom/Black/Death Metal
Discnumber=1/1



Register


Go to the top of the page
  Insert nick Quick quote
+Quote Post
 
Start new topic
Replies (1 - 1)
post Mar 25 2020, 16:52:14
Post #2

Маньяк
**********
Group: Металариец
Posts: 1,147
Releases: 37
From: великий город Питер
On Forums: 14 years 3 months
Thanks: 1954 time(s)
Russian Federation


дума не замечено, блэк разве что в текстах, музыкально олдскул почтибрутал дэт.....
Go to the top of the page
  Insert nick Quick quote
+Quote Post

Reply to this topicStart new topic
1 User(s) are reading this topic (1 Guests and 0 Anonymous Users)
0 Members:

 



- Lo-Fi Version Support form
Copyrights and abuse reports form
Time is now: 3rd April 2020 - 18:19:53