Welcome Guest ( Log In | Register )

> Releases Upload / Добавление релизов

Добавить релиз тут / Click here to add release
Рекомендованные обменники / Recommended file shares

> Revenant Marquis & Lamp Of Murmuur - Revenant Marquis/Lamp Of Murmuur [split] (2020), Raw Black Metal | Raw Black Metal (D5)(D4)
post Mar 24 2020, 18:54:57
Post #1

Правь статус, ####!111
**************
Group: Металариец
Posts: 4,282
Releases: 1191
From: Brazil
On Forums: 8 years 2 months
Thanks: 44299 time(s)
Brazil


(IMG:https://metalarea.org/images/audiocovers/2020_Mar/acov_tid335263_thumb.jpg)

*Artist: Revenant Marquis & Lamp Of Murmuur
*Album: Revenant Marquis/Lamp Of Murmuur [split]
*Year: 2020
*Genre: Raw Black Metal | Raw Black Metal
*Country: United Kingdom (IMG:https://metalarea.org/forum/style_images/flags/United%20Kingdom.png) | United States (IMG:https://metalarea.org/forum/style_images/flags/United%20States.png)
*Format: mp3@CBR320kbps
*Size: 96MB

Tracklist:
Revenant Marquis:
1. Wye is the Moon I
2. Wye is the Moon II
3. Wye is the Moon III
4. Wye is the Moon IV
Lamp of Murmuur:
5. ...And So Falls The Night
6. Intercourse Under the Ninth Spell
7. With the Moon As My Robe
******************************
Total playing time: 41:54

Extended info
Death Kvlt Productions


Technical info
(IMG:https://metalarea.org/images/spectrogram/2020_Mar/36c2a89119658dd23b58eec07e506e44.png)
Input File: 5. Lamp of Murmuur - ...And So Falls The Night.mp3
Channels : 2
Sample Rate : 44100
Precision : 16-bit
Duration : 00:01:55.08 = 5074808 samples = 8630.63 CDDA sectors
File Size : 4.60M
Bit Rate : 320k
Sample Encoding: MPEG audio (layer I, II or III)
Comments :
Title=...And So Falls The Night
Artist=Lamp of Murmuur
Album=Revenant Marquis / Lamp of Murmuur
Tracknumber=5
Year=2020



Register


Go to the top of the page
  Insert nick Quick quote
+Quote Post
 
Start new topic
Replies (1 - 4)
post Mar 25 2020, 06:43:59
Post #2
BAN
Banned till
Apr 7 2020, 21:36:55





Go to the top of the page
  Insert nick Quick quote
+Quote Post
post Mar 25 2020, 11:12:56
Post #3

𝕻𝕬𝕹𝕬𝕮𝕰𝕬
********
Group: Металариец
Posts: 801
Releases: 462
On Forums: 7 years 10 months
Thanks: 7429 time(s)
Unknown



Go to the top of the page
  Insert nick Quick quote
+Quote Post
post Mar 25 2020, 11:18:04
Post #4

Правь статус, ####!111
**************
Group: Металариец
Posts: 45,740
Releases: 705
On Forums: 10 years 10 months
Thanks: 37730 time(s)
Russian Federation


Облржка крайне приятна этакое обыгрывание ДМДС от сами знаете кого.
Go to the top of the page
  Insert nick Quick quote
+Quote Post
post Mar 30 2020, 19:55:08
Post #5

Два Литра
**
Group: Завсегдатай
Posts: 103
Releases: 0
On Forums: 1 month 1 week
Thanks: 61 time(s)
Unknown


Данный сплит как можно рассматривать как эталон для всех поборников культа сырого Блэк Метала. Очень рекомендую


Thanks:
(1) Daale,
Go to the top of the page
  Insert nick Quick quote
+Quote Post

Reply to this topicStart new topic
1 User(s) are reading this topic (1 Guests and 0 Anonymous Users)
0 Members:

 



- Lo-Fi Version Support form
Copyrights and abuse reports form
Time is now: 3rd April 2020 - 19:26:24