Welcome Guest ( Log In | Register )

> И неформату есть предел.

Рэп/хип-хоп/шансон/поп удаляются. Для них есть свои порталы.

 
Reply to this topicStart new topic
> Żywiołak - Wendzki Sznyt (2019), Folk Rock
post Mar 24 2020, 19:01:44
Post #1

Каждое ваше "Спасибо" помогает мне понять, что я делаю новости не напрасно.
**************
Group: Металариец
Posts: 2,449
Releases: 2160
From: Одесса
On Forums: 11 years 9 months
Thanks: 20031 time(s)
Ukraine


(IMG:http://metalarea.org/images/audiocovers/2020_Mar/acov_tid335264_thumb.jpg)

*Artist: Żywiołak
*Album: Wendzki Sznyt
*Year: 2019
*Genre: Folk Rock
*Country: Poland (IMG:http://metalarea.org/forum/style_images/flags/Poland.png)
*Format: mp3@CBR320kbps
*Size: 129MB

Tracklist:
1.Christiana Mare 03:52
2.Morski król 06:50
3.We cnocie 04:10
4.Owczarkinowje 02:18
5.Dziadyga 05:09
6.Oj ty kanio 00:38
7.Dzień ósmy 05:35
8.Boga nie znawszy 03:51
9.Klątwa Wendów 04:37
10.Cicha 06:29
11.Anomalia kaszubskie 01:42
12.Kościsko 04:42
13.Wendzki sznyt 04:38
******************************
Total playing time: 54:31

(IMG:http://metalarea.org/images/youtube.png)

Extended info
Line - up:

Kamil Strzyżewski - Bass, Lyra
Michał Stawarz - Drums
Wiktoria Kwiatkowska - Vocals
Zuza Ciszewska - Vocals, Viola
Szyszka Leśna - Vocals, Viola
Robert Jaworski - Bagpipes, Flute, Hurdy gurdy, Lute, Renaissance Fidel, Viola (Ich troLe, Kapela ze Wsi Warszawa, Roberto Delira & Kompany, Suspiria & Robertos de Lira)

(IMG:https://www.metal-archives.com/images/7/3/8/5/73855_photo.jpg?0839)


Technical info
(IMG:http://metalarea.org/images/spectrogram/2020_Mar/b2a309aa741afa2bbb7202bd71e2c0b6.png)
Input File: 09 - Klątwa Wendów.mp3
Channels : 2
Sample Rate : 44100
Precision : 16-bit
Duration : 00:04:37.33 = 12230429 samples = 20800 CDDA sectors
File Size : 11.1M
Bit Rate : 320k
Sample Encoding: MPEG audio (layer I, II or III)
Comments :
Title=Klątwa Wendów
Artist=Żywiołak
Album=Wendzki Sznyt
Tracknumber=9
Year=2019
Genre=Folk Rock



Register


Go to the top of the page
  Insert nick Quick quote
+Quote Post

Reply to this topicStart new topic
2 User(s) are reading this topic (2 Guests and 0 Anonymous Users)
0 Members:

 



- Lo-Fi Version Support form
Copyrights and abuse reports form
Time is now: 29th March 2020 - 03:59:39