Welcome Guest ( Log In | Register )

> И неформату есть предел.

Рэп/хип-хоп/шансон/поп удаляются. Для них есть свои порталы.

> Trip Hill - Eliaf (2018), 60´s Acid/Psychedelic Rock/Heavy Psych
post Mar 24 2020, 19:10:53
Post #1

Правь статус, ####!111
**************
Group: Металариец
Posts: 45,739
Releases: 705
On Forums: 10 years 10 months
Thanks: 37725 time(s)
Russian Federation


(IMG:http://metalarea.org/images/audiocovers/2020_Mar/acov_tid335265_thumb.jpg)

*Artist: Trip Hill
*Album: Eliaf
*Year: 2018
*Genre: 60´s Acid/Psychedelic Rock/Heavy Psych
*Country: Italy (IMG:http://metalarea.org/forum/style_images/flags/Italy.png)
*Format: mp3@CBR320kbps
*Size: 95MB

Tracklist:
1. Capstan 01:15
2. Eliaf 06:09
3. Feel 06:01
4. Inn free 01:40
5. Junk teeth 04:13
6. Brujo 02:52
7. Olivia dreams 04:39
8. Jam tree 04:11
9. Run through 05:00
10. Market of nose 05:22
******************************
Total playing time: 41:22



Technical info
(IMG:http://metalarea.org/images/spectrogram/2020_Mar/8b49fc13fa5d36c46a3786a6cbc14bcd.png)
Input File: 01 Capstan.mp3
Channels : 2
Sample Rate : 44100
Precision : 16-bit
Duration : 00:01:16.05 = 3353761 samples = 5703.68 CDDA sectors
File Size : 3.21M
Bit Rate : 337k
Sample Encoding: MPEG audio (layer I, II or III)
Comments :
Title=Capstan
Artist=Trip Hill
Album=Eliaf
Tracknumber=1
Year=2018
Genre=Rock



Register


Go to the top of the page
  Insert nick Quick quote
+Quote Post
 
Start new topic
Replies (1 - 1)
post Mar 25 2020, 09:13:00
Post #2

Правь статус, ####!111
**************
Group: Металариец
Posts: 45,739
Releases: 705
On Forums: 10 years 10 months
Thanks: 37725 time(s)
Russian Federation


Чутка более разряженный композиционно и мелодически, но, в принципе, хороший релиз.


Thanks:
(1) gikaki,
Go to the top of the page
  Insert nick Quick quote
+Quote Post

Reply to this topicStart new topic
1 User(s) are reading this topic (1 Guests and 0 Anonymous Users)
0 Members:

 



- Lo-Fi Version Support form
Copyrights and abuse reports form
Time is now: 3rd April 2020 - 17:02:54