Welcome Guest ( Log In | Register )

> Releases Upload / Добавление релизов

Добавить релиз тут / Click here to add release
Рекомендованные обменники / Recommended file shares

> Nomad - Transmogrification (Partus) (2020), Black/Death Metal
post Mar 24 2020, 19:38:12
Post #1

Правь статус, ####!111
**************
Group: Металариец
Posts: 21,205
Releases: 14487
From: Г.Харьков
On Forums: 7 years 10 months
Thanks: 258286 time(s)
Unknown


(IMG:http://metalarea.org/images/audiocovers/2020_Mar/acov_tid335267_thumb.jpg)

*Artist: Nomad
*Album: Transmogrification (Partus)
*Year: 2020
*Genre: Black/Death Metal
*Country: Poland (IMG:http://metalarea.org/forum/style_images/flags/Poland.png)
*Format: mp3@CBR320kbps
*Size: 70MB

Tracklist:
1. A Wanderer Without a Shadow 04:16
2. In the Hands of Progression 04:25
3. Clouds of Hills 03:36
4. Nomadeus 03:35
5. Pantocrator 06:38
6. The Graceful Abyss 05:16
7. Inconsolable Longing 05:03
******************************
Total playing time: 32:49





Extended info
Patrick "Seth" Bilmorgh Guitars (1994-present)
See also: Behemoth (live)
Bleyzabel Balberith Vocals (1994-present)
See also: ex-Putrefaction, ex-Egoizm
Nameless Immenus Guitars (1998-present)
See also: Kira, ex-Ethelyn
Groszek Drums (2014-present)
See also: Kira, Peacemaker, ex-Subterfuge
Piotr Ślęzak Bass (2015-present)
See also: Kira


Technical info
(IMG:http://metalarea.org/images/spectrogram/2020_Mar/434b283f9fed2136eee74a3af604739b.png)
Input File: 05. Pantocrator.mp3
Channels : 2
Sample Rate : 44100
Precision : 16-bit
Duration : 00:06:38.29 = 17564501 samples = 29871.6 CDDA sectors
File Size : 16.1M
Bit Rate : 323k
Sample Encoding: MPEG audio (layer I, II or III)
Comments :
Title=Pantocrator
Artist=Nomad
Album=Transmogrification (Partus)
Tracknumber=5/7
Year=2020
Genre=9
Discnumber=1



Register


Go to the top of the page
  Insert nick Quick quote
+Quote Post
 
Start new topic
Replies (1 - 2)
post Mar 25 2020, 03:44:41
Post #2

Group: Подсевший
Posts: 17
Releases: 0
On Forums: 2 years 9 hours
Thanks: 18 time(s)
Unknown


Album bandcamp page:



Go to the top of the page
  Insert nick Quick quote
+Quote Post
post Mar 25 2020, 04:05:23
Post #3

Правь статус, ####!111
**************
Group: Металариец
Posts: 21,205
Releases: 14487
From: Г.Харьков
On Forums: 7 years 10 months
Thanks: 258286 time(s)
Unknown


Cloud Mail 320 + Bonus Disk EP 2015
Register


Go to the top of the page
  Insert nick Quick quote
+Quote Post

Reply to this topicStart new topic
2 User(s) are reading this topic (2 Guests and 0 Anonymous Users)
0 Members:

 



- Lo-Fi Version Support form
Copyrights and abuse reports form
Time is now: 1st April 2020 - 06:13:50