Welcome Guest ( Log In | Register )

> Releases Upload / Добавление релизов

Добавить релиз тут / Click here to add release
Рекомендованные обменники / Recommended file shares

> Боянов Гимн - Край Далёкий [ep] (2020), Folk Metal (D6)
post Mar 24 2020, 19:50:58
Post #1

Каждое ваше "Спасибо" помогает мне понять, что я делаю новости не напрасно.
**************
Group: Металариец
Posts: 2,479
Releases: 2187
From: Одесса
On Forums: 11 years 10 months
Thanks: 20342 time(s)
Ukraine


(IMG:http://metalarea.org/images/audiocovers/2020_Mar/acov_tid335268_thumb.jpg)

*Artist: Боянов Гимн
*Album: Край Далёкий [ep]
*Year: 2020
*Genre: Folk Metal
*Country: Russian Federation (IMG:http://metalarea.org/forum/style_images/flags/Russian%20Federation.png)
*Format: mp3@CBR320kbps
*Size: 49MB

Tracklist:
1.Камни, травы 03:50
2.За морями 03:49
3.Ворона 03:40
4.Сгорая свечой (piano ver.) 04:58
5.За морями 03:49 instrumental
******************************
Total playing time: 20:06

(IMG:http://metalarea.org/images/youtube.png)

Extended info
Line - up:
Илья "Волот" - Guitars, Samples (Кропот, Cult of Aloe, Mea Culta)
Алексей - Balalaika, Recorder (Новолуние, Оля и Домовые, ex-ВОгрЭС, ex-Паноптикум, ex-Пропили Пропеллер, ex-Скотофалк, ex-Эвтаназия)
Александр "XxX" - Bass (Reborn in Chaos, Abracsas, Head Off!, ex-Demons of Guillotine)
Игорь "Hurry" - Accordion (Сварга, ex-Лешак)
Илья "Jazz" - Drums (Кропот)
Татьяна "Taima" - Vocals

Guest/Session:
Фёдор Ветров - Violin (track 4), Viola (track 4) (Омела, ex-Невидь, Ветер Воды)
Илья Кудряшов - Zhaleika (track 1)
Каминский Алексей - Keyboards (track 4) (O.S.A.)
Анастасия "Orindge" - Vocals (backing) (tracks 1, 2)

(IMG:https://www.metal-archives.com/images/1/0/0/9/100993_photo.jpg?5144)


Technical info
(IMG:http://metalarea.org/images/spectrogram/2020_Mar/a9d0d8253eefbce4f268f1aaee52a5bf.png)
Input File: 04 - Сгорая свечой (piano ver.).mp3
Channels : 2
Sample Rate : 44100
Precision : 16-bit
Duration : 00:04:58.26 = 13153222 samples = 22369.4 CDDA sectors
File Size : 11.9M
Bit Rate : 320k
Sample Encoding: MPEG audio (layer I, II or III)
Comments :
Title=Сгорая свечой (piano ver.)
Artist=Боянов Гимн
Album=Край Далёкий (EP)
Tracknumber=4
Year=2020
Genre=Folk Metal



Register


Go to the top of the page
  Insert nick Quick quote
+Quote Post
 
Start new topic
Replies (1 - 1)
post Mar 25 2020, 23:00:44
Post #2

Шесть Литров
******
Group: Металариец
Posts: 555
Releases: 26
On Forums: 10 years 10 months
Thanks: 553 time(s)
Chile


Thanks (IMG:style_emoticons/default/dwarf-1.gif)
Go to the top of the page
  Insert nick Quick quote
+Quote Post

Reply to this topicStart new topic
2 User(s) are reading this topic (2 Guests and 0 Anonymous Users)
0 Members:

 



- Lo-Fi Version Support form
Copyrights and abuse reports form
Time is now: 3rd April 2020 - 18:52:49