Welcome Guest ( Log In | Register )

> Releases Upload / Добавление релизов

Добавить релиз тут / Click here to add release
Рекомендованные обменники / Recommended file shares

> Shampoon Killer - Mankind Depravity (2020), Brutal Death Metal
post Mar 24 2020, 19:51:44
Post #1

Правь статус, ####!111
**************
Group: Металариец
Posts: 21,205
Releases: 14487
From: Г.Харьков
On Forums: 7 years 10 months
Thanks: 258287 time(s)
Unknown


(IMG:http://metalarea.org/images/audiocovers/2020_Mar/acov_tid335269_thumb.jpg)

*Artist: Shampoon Killer
*Album: Mankind Depravity
*Year: 2020
*Genre: Brutal Death Metal
*Country: Czech Republic (IMG:http://metalarea.org/forum/style_images/flags/Czech%20Republic.png)
*Format: mp3@CBR320kbps
*Size: 78MB

Tracklist:
1. Theater for Brainless People 03:10
2. Slaves of Unnecessary Things 03:36
3. ...End Justin for All 02:45
4. Dead Trendy Leader 03:26
5. Perpetual Decimation 03:52
6. Antitrendy Generation 03:47
7. Youtuber 02:42
8. Return of the Commercial Bastards 04:01
9. Trapped and Cursed 04:54
******************************
Total playing time: 32:13

Preview 1



Extended info
Láďa Laloušek Bass
Martin Laloušek Drums
Petr "Prewith" Adamec Guitars
Petr Myšák Guitars
Petr "Cifron" Cína Vocals
Michal "Žlababa" Štěpánek Vocals


Technical info
(IMG:http://metalarea.org/images/spectrogram/2020_Mar/4bdfce7039754862f5e07fe88b8b537f.png)
Input File: 05. Perpetual Decimation.mp3
Channels : 2
Sample Rate : 44100
Precision : 16-bit
Duration : 00:03:52.66 = 10260394 samples = 17449.6 CDDA sectors
File Size : 9.77M
Bit Rate : 336k
Sample Encoding: MPEG audio (layer I, II or III)
Comments :
Title=Perpetual Decimation
Artist=Shampoon Killer
Album=Mankind Depravity
Tracknumber=5
Year=2020
Genre=Death



Register


Go to the top of the page
  Insert nick Quick quote
+Quote Post
 
Start new topic
Replies (1 - 2)
post Mar 25 2020, 09:49:06
Post #2

Пять Литров
*****
Group: Металариец
Posts: 499
Releases: 0
From: APATIN, SERBIA, АПАТИН, СЕРБИЯ
On Forums: 12 years 5 months
Thanks: 709 time(s)



Flac

Register
Go to the top of the page
  Insert nick Quick quote
+Quote Post
post Mar 25 2020, 09:50:14
Post #3

Правь статус, ####!111
**************
Group: Металариец
Posts: 45,707
Releases: 704
On Forums: 10 years 9 months
Thanks: 37635 time(s)
Russian Federation


Шампур киллер звучало бы более подходяще (IMG:style_emoticons/default/25.gif)


Thanks:
Go to the top of the page
  Insert nick Quick quote
+Quote Post

Reply to this topicStart new topic
2 User(s) are reading this topic (2 Guests and 0 Anonymous Users)
0 Members:

 



- Lo-Fi Version Support form
Copyrights and abuse reports form
Time is now: 1st April 2020 - 06:24:43