Welcome Guest ( Log In | Register )

 
Reply to this topicStart new topic
> Automb - Chaosophy (2020), Black Metal
post Mar 24 2020, 20:03:02
Post #1

Правь статус, ####!111
**************
Group: Металариец
Posts: 21,167
Releases: 14450
From: Г.Харьков
On Forums: 7 years 10 months
Thanks: 257536 time(s)
Unknown


(IMG:http://metalarea.org/images/audiocovers/2020_Mar/acov_tid335270_thumb.jpg)

*Artist: Automb
*Album: Chaosophy
*Year: 2020
*Genre: Black Metal
*Country: United States (IMG:http://metalarea.org/forum/style_images/flags/United%20States.png)
*Format: mp3@CBR320kbps
*Size: 88MB

Tracklist:
1. Path of Return 01:08
2. Transmigration Omega 05:15
3. Chaosophy 04:59
4. Serpent of the Night 05:05
5. Selbstgott 05:25
6. Hel 04:19
7. Trishula 04:12
8. Cosmig Tyranny 04:20
9. Ragnarok 06:34
******************************
Total playing time: 41:17




Extended info
Scott Fuller Drums
See also: Annihilated, Errorgeist, Morbid Angel, Steelsong, Incinerated Divinity, Plaguereaper, ex-Abysmal Dawn, ex-Havok, ex-Sentinel Beast, ex-Skitzo, ex-Jungle Rot (live), ex-Acridious
Serge Streltsov Guitars
See also: Dreadeth, Haxxan, ex-Grisly Amputation, ex-Incinerate Creation, ex-Necrophagia, ex-Bloodwraith
Danielle Evans Vocals, Bass, Keyboards


Technical info
(IMG:http://metalarea.org/images/spectrogram/2020_Mar/acf6efe44900e241a387ff60bb25793b.png)
Input File: 04. Serpent of the Night.mp3
Channels : 2
Sample Rate : 44100
Precision : 16-bit
Duration : 00:05:05.63 = 13478107 samples = 22922 CDDA sectors
File Size : 12.3M
Bit Rate : 322k
Sample Encoding: MPEG audio (layer I, II or III)
Comments :
Title=Serpent of the Night
Artist=Automb
Album=Chaosophy
Tracknumber=4/9
Year=2020
Genre=9
Discnumber=1/1



Register


Go to the top of the page
  Insert nick Quick quote
+Quote Post

Reply to this topicStart new topic
1 User(s) are reading this topic (1 Guests and 0 Anonymous Users)
0 Members:

 



- Lo-Fi Version Support form
Copyrights and abuse reports form
Time is now: 29th March 2020 - 03:58:00