Welcome Guest ( Log In | Register )

> Releases Upload / Добавление релизов

Добавить релиз тут / Click here to add release
Рекомендованные обменники / Recommended file shares

 
Reply to this topicStart new topic
> Lamentari - Missa Pro Defunctis [ep] (2020), Symphonic Black Metal
post Mar 24 2020, 22:34:05
Post #1

Правь статус, ####!111
**************
Group: Металариец
Posts: 21,205
Releases: 14487
From: Г.Харьков
On Forums: 7 years 10 months
Thanks: 258285 time(s)
Unknown


(IMG:http://metalarea.org/images/audiocovers/2020_Mar/acov_tid335273_thumb.jpg)

*Artist: Lamentari
*Album: Missa Pro Defunctis [ep]
*Year: 2020
*Genre: Symphonic Black Metal
*Country: Denmark (IMG:http://metalarea.org/forum/style_images/flags/Denmark.png)
*Format: mp3@CBR320kbps
*Size: 60MB

Tracklist:
01. Introitus
02. Dies Irae
03. Lacrimosa
04. Confutatis
******************************
Total playing time: 26:46



Extended info
Max Uldahl Pedersen – Keys
Emil Holst Partsch – Guitar
Francisco “FURAN” Fuentes – Vocals
Jon Elmquist Schmidt – Drums
Thomas Fischer – Bass
Daniel Lønberg – Vocals (Live)
Ingolf Sebastian Schjødt – Guitar (Live)
Eskil Rask – Bass (Live)
Thomas Mascagni – Drums (Live)


Technical info
(IMG:http://metalarea.org/images/spectrogram/2020_Mar/a45f19394ca6cbdd5b8527881ab8a249.png)
Input File: 03 - Lacrimosa.mp3
Channels : 2
Sample Rate : 44100
Precision : 16-bit
Duration : 00:06:30.64 = 17227048 samples = 29297.7 CDDA sectors
File Size : 15.6M
Bit Rate : 320k
Sample Encoding: MPEG audio (layer I, II or III)
Comments :
Title=Lacrimosa
Artist=Lamentari
Album=Missa Pro Defunctis
Tracknumber=3
Year=2020
Genre=Black Metal



Register


Go to the top of the page
  Insert nick Quick quote
+Quote Post

Reply to this topicStart new topic
2 User(s) are reading this topic (2 Guests and 0 Anonymous Users)
0 Members:

 



- Lo-Fi Version Support form
Copyrights and abuse reports form
Time is now: 1st April 2020 - 06:09:12