Welcome Guest ( Log In | Register )

> Releases Upload / Добавление релизов

Добавить релиз тут / Click here to add release
Рекомендованные обменники / Recommended file shares

> The Porridgeface - Life Is Dead (2020), Thrash/Speed Metal (D)
post Mar 25 2020, 04:31:43
Post #1

Правь статус, ####!111
**************
Group: Металариец
Posts: 21,205
Releases: 14487
From: Г.Харьков
On Forums: 7 years 10 months
Thanks: 258287 time(s)
Unknown


(IMG:http://metalarea.org/images/audiocovers/2020_Mar/acov_tid335275_thumb.jpg)

*Artist: The Porridgeface
*Album: Life Is Dead
*Year: 2020
*Genre: Thrash/Speed Metal
*Country: Sweden (IMG:http://metalarea.org/forum/style_images/flags/Sweden.png)
*Format: mp3@CBR320kbps
*Size: 86MB

Tracklist:
1. Heavenblast 05:51
2. Chaos Unleashed 05:32
3. Anarchy 04:02
4. Last Caress 04:34
5. The Throne of God Abandoned 06:13
6. In Blackness You Dwell 05:51
7. Life Is Dead 04:38
******************************
Total playing time: 36:41




Extended info
Anders Lindberg All instruments, Vocals (1991-?)
See also: ex-Age of Nefarious, ex-Excöriator, ex-Gaslarm, ex-HeadQuaker, ex-Psychotrone, ex-Secret Attack
Michael "MettleAngel" Francisco Lyrics (2012-?)


Technical info
(IMG:http://metalarea.org/images/spectrogram/2020_Mar/f3a8ca0397b7acaa9265cc2e9a2b9cd2.png)
Input File: 04 - Last Caress.mp3
Channels : 2
Sample Rate : 44100
Precision : 16-bit
Duration : 00:04:34.36 = 12099100 samples = 20576.7 CDDA sectors
File Size : 11.2M
Bit Rate : 327k
Sample Encoding: MPEG audio (layer I, II or III)
Comments :
Title=Last Caress
Artist=The Porridgeface
Album=Life Is Dead
Tracknumber=4
Year=2020



Register


Go to the top of the page
  Insert nick Quick quote
+Quote Post
 
Start new topic
Replies (1 - 2)
post Mar 26 2020, 14:08:16
Post #2

at the top
**************
Group: Металариец
Posts: 4,677
Releases: 0
From: Одесса
On Forums: 12 years 4 weeks
Thanks: 3228 time(s)
Ukraine


The porridge-feces strikes again with a new splash. (IMG:style_emoticons/default/m1801.gif)
Go to the top of the page
  Insert nick Quick quote
+Quote Post
post Mar 28 2020, 15:49:04
Post #3

Правь статус, ####!111
**************
Group: Металариец
Posts: 2,905
Releases: 8
From: Dnipro
On Forums: 11 years 8 months
Thanks: 923 time(s)
Ukraine


Тоже самое что и Gaslarm
Go to the top of the page
  Insert nick Quick quote
+Quote Post

Reply to this topicStart new topic
2 User(s) are reading this topic (2 Guests and 0 Anonymous Users)
0 Members:

 



- Lo-Fi Version Support form
Copyrights and abuse reports form
Time is now: 1st April 2020 - 06:20:55