Welcome Guest ( Log In | Register )

> Releases Upload / Добавление релизов

Добавить релиз тут / Click here to add release
Рекомендованные обменники / Recommended file shares

 
Reply to this topicStart new topic
> Azusa - Loop Of Yesterdays (2020), Extreme Progressive Metal
post Mar 25 2020, 05:00:21
Post #1

Hedniskhjärtad
******
Group: Металариец
Posts: 526
Releases: 167
From: Петроград
On Forums: 13 years 8 months
Thanks: 3014 time(s)
Russian Federation


(IMG:https://metalarea.org/images/audiocovers/2020_Mar/acov_tid335276_thumb.jpg)

*Artist: Azusa
*Album: Loop Of Yesterdays
*Year: 2020
*Genre: Extreme Progressive Metal
*Country: International (IMG:https://metalarea.org/forum/style_images/flags/International.png)
*Format: mp3@CBR320kbps
*Size: 84MB

Tracklist:
01. Memories Of An Old Emotion (2:47)
02. One Too Many Times (3:42)
03. Detach (4:09)
04. Seven Demons Mary (3:40)
05. Support Becomes Resistance (0:32)
06. Monument (2:30)
07. Loop Of Yesterdays (2:43)
08. Rapture Boy (3:40)
09. Skull Chamber (3:53)
10. Kill / Destroy (3:06)
11. Golden Words (3:08)
12. Aching Ritual (2:04)
******************************
Total playing time: 35:54

(IMG:https://metalarea.org/images/youtube.png)

Technical info
(IMG:https://metalarea.org/images/spectrogram/2020_Mar/2d8330404e238372fb3e785767b14383.png)
Input File: 01-Memories Of An Old Emotion.mp3
Channels : 2
Sample Rate : 44100
Precision : 16-bit
Duration : 00:02:47.88 = 7403288 samples = 12590.6 CDDA sectors
File Size : 6.72M
Bit Rate : 320k
Sample Encoding: MPEG audio (layer I, II or III)
Comments :
Title=Memories Of An Old Emotion
Artist=Azusa
Album=Loop Of Yesterdays
Tracknumber=01
Year=2020
Genre=Metal



Register


Go to the top of the page
  Insert nick Quick quote
+Quote Post

Reply to this topicStart new topic
1 User(s) are reading this topic (1 Guests and 0 Anonymous Users)
0 Members:

 



- Lo-Fi Version Support form
Copyrights and abuse reports form
Time is now: 29th March 2020 - 04:35:35